<?xml version="1.0" standalone="no"?>
<!DOCTYPE svg PUBLIC "-//W3C//DTD SVG 1.1//EN" "http://www.w3.org/Graphics/SVG/1.1/DTD/svg11.dtd" >
<svg xmlns="http://www.w3.org/2000/svg">
<metadata>Generated by IcoMoon</metadata>
<defs>
<font id="icomoon" horiz-adv-x="512">
<font-face units-per-em="512" ascent="480" descent="-32" />
<missing-glyph horiz-adv-x="512" />
<glyph unicode="&#x20;" d="" horiz-adv-x="256" />
<glyph unicode="&#xe600;" d="M219.213 370.791c10.701-10.445 115.251-120.218 115.251-120.218 5.735-5.581 8.576-12.877 8.576-20.173s-2.841-14.592-8.576-20.173c0 0-104.55-109.773-115.251-120.192-10.701-10.445-29.927-11.161-41.369 0-11.417 11.136-12.314 26.675 0 40.32l95.949 100.045-95.923 100.045c-12.314 13.67-11.417 29.209 0 40.345s30.669 10.445 41.344 0z" />
<glyph unicode="&#xe601;" d="M143.352 40.499c-6.861-6.938-6.861-18.125 0-25.063s17.946-6.938 24.806 0l200.448 202.419c6.861 6.938 6.861 18.151 0 25.063l-200.448 202.445c-6.861 6.938-17.946 6.938-24.806 0s-6.861-18.125 0-25.063l182.784-189.901-182.784-189.901z" />
<glyph unicode="&#xe602;" d="M287.462 198.938c-40.525-40.55-87.475-79.309-106.035-60.723-26.573 26.547-42.931 49.69-101.504 2.637s-13.594-78.438 12.16-104.192c29.696-29.671 140.391-1.562 249.831 107.853 109.389 109.415 137.549 220.135 107.827 249.831-25.728 25.753-57.088 70.707-104.166 12.16s-23.936-74.931 2.637-101.504c18.509-18.586-20.224-65.511-60.749-106.061z" />
<glyph unicode="&#xe603;" d="M355.251 486.4h-198.502c-28.749 0-52.249-23.501-52.249-52.249v-407.501c0-28.723 23.501-52.25 52.249-52.25h198.502c28.749 0 52.25 23.526 52.25 52.25v407.501c0 28.749-23.501 52.25-52.25 52.25zM256-4.711c-20.173 0-36.557 11.699-36.557 26.137s16.384 26.137 36.557 26.137c20.199 0 36.557-11.699 36.557-26.137s-16.358-26.137-36.557-26.137zM365.696 73.677h-219.417v344.807h219.417v-344.807z" />
<glyph unicode="&#xe604;" d="M394.291 117.683l-67.226 192.922c-18.509 53.094-75.955 82.432-130.381 67.942l-50.585 98.15c-4.583 8.883-15.309 12.288-23.987 7.603-8.678-4.71-12.007-15.719-7.424-24.601l49.382-95.821c-39.347-26.112-59.802-75.597-46.848-122.189l54.784-197.018c15.411-55.373 78.848-83.584 142.618-64.077 62.95 22.093 98.586 82.867 79.667 137.088zM227.815 257.971c-18.662-6.119-38.681 4.403-44.672 23.577-5.99 19.149 4.301 39.654 22.989 45.773 18.688 6.144 38.707-4.403 44.697-23.552s-4.301-39.654-23.014-45.798z" />
<glyph unicode="&#xe605;" d="M217.6 460.8h-23.014c-5.657 0-10.266-4.608-10.266-10.24v-97.28h-90.522c-4.224 0-9.472-0.973-14.489-2.509-5.069-1.561-9.907-3.712-13.363-6.067l-60.8-41.728c-3.43-2.355-5.146-5.453-5.146-8.576s1.715-6.221 5.146-8.576l60.8-41.728c3.456-2.355 8.294-4.506 13.363-6.067 5.017-1.536 10.266-2.509 14.489-2.509h90.522v-225.28c0-5.658 4.608-10.24 10.24-10.24h23.040c5.657 0 10.24 4.608 10.24 10.24v440.32c0 5.632-4.583 10.24-10.24 10.24zM506.854 354.15l-60.8 41.728c-3.43 2.355-8.269 4.505-13.337 6.067-5.043 1.561-10.291 2.534-14.515 2.534h-175.001l20.506-117.76h154.496c4.224 0 9.472 0.973 14.515 2.509s9.907 3.712 13.337 6.041l60.8 41.728c3.456 2.381 5.146 5.478 5.146 8.601s-1.69 6.221-5.146 8.55z" />
<glyph unicode="&#xe606;" d="M40.806 351.079c12.493-6.733 185.575-99.686 192.025-103.143 6.425-3.456 14.771-5.12 23.168-5.12 8.423 0 16.768 1.664 23.193 5.145 6.451 3.456 179.507 96.409 192 103.143 12.519 6.707 24.346 27.776 1.382 27.776h-433.127c-22.963 0-11.162-21.069 1.357-27.801zM476.493 299.879c-14.208-7.424-188.595-98.586-197.299-103.143s-14.771-5.146-23.193-5.146c-8.397 0-14.464 0.589-23.168 5.146s-183.117 95.744-197.299 103.143c-10.009 5.222-9.933-0.896-9.933-5.607s0-187.776 0-187.776c0-10.752 14.31-24.576 25.395-24.576h410.035c11.111 0 25.37 13.824 25.37 24.55 0 0 0 183.065 0 187.776 0 4.736 0.103 10.855-9.907 5.632z" />
<glyph unicode="&#xe607;" d="M478.567 418.944c-8.781-3.098-443.418-156.237-451.968-159.257-7.27-2.56-8.909-8.832-0.256-12.263 10.266-4.121 97.177-38.938 97.177-38.938h-0.025l57.626-23.091c0 0 277.427 203.75 281.19 206.49 3.763 2.765 8.141-2.432 5.401-5.401-2.739-2.995-201.498-217.959-201.498-217.959-0.026 0-0.026 0-0.026 0l-11.571-12.902 15.335-8.243c0 0 119.040-64.077 127.514-68.659 7.424-3.993 17.101-0.666 19.251 8.576 2.534 10.906 72.832 313.907 74.394 320.615 2.048 8.781-3.738 14.131-12.544 11.034zM180.608 47.053c0-6.323 3.559-8.064 8.474-3.61 6.4 5.837 72.935 65.536 72.935 65.536l-81.408 42.137v-104.064z" />
<glyph unicode="&#xe608;" d="M423.962 398.387c-36.915 36.941-64.64 31.411-64.64 31.411l-277.146-277.146-25.856-121.933 121.933 25.856 277.12 277.12c0 0 5.555 27.725-31.411 64.691zM170.982 71.245l-41.549-8.96c-4.019 7.501-8.858 15.002-17.689 23.859-8.832 8.832-16.359 13.645-23.859 17.664l8.986 41.575 12.007 12.007c0 0 22.63-0.461 48.153-25.984 25.549-25.549 26.010-48.179 26.010-48.179l-12.058-11.981z" />
<glyph unicode="&#xe609;" d="M108.903-19.507c7.834 25.625 19.712 61.721 35.609 113.945 69.274 11.187 97.945-8.935 141.952 71.27-35.712-11.161-78.771 20.711-76.442 34.509 2.304 13.824 100.173-9.959 164.224 82.893-80.743-18.15-106.599 21.837-96.179 27.879 24.038 13.952 95.411 5.785 133.453 43.597 19.61 19.456 28.774 66.791 20.813 83.686-9.6 20.377-68.019 50.791-100.224 47.949-32.205-2.867-82.714-125.159-97.69-124.185s-17.971 54.758 8.166 104.781c-27.571-12.442-78.080-51.174-93.927-84.275-29.517-61.594 2.765-202.829-7.577-207.872-10.368-5.017-45.209 64.845-55.603 96.512-14.208-48.538-14.541-97.178 26.983-161.792-15.667-42.394-24.218-91.187-25.523-115.993-0.615-19.866 18.509-24.115 21.965-12.902z" />
<glyph unicode="&#xe60a;" d="M127.001-25.6c-34.202 0-66.227 14.49-89.37 37.658-44.8 44.8-57.319 123.034 5.504 185.856 36.839 36.787 184.294 184.243 257.894 257.843 26.137 26.138 59.366 36.224 91.213 27.674 31.257-8.346 56.909-33.971 65.28-65.255 8.525-31.846-1.587-65.101-27.699-91.213l-246.579-246.605c-14.080-14.080-29.977-22.425-45.977-24.089-15.821-1.664-30.925 3.43-41.523 14.003-19.2 19.175-21.913 55.27 9.984 87.142l173.184 173.235c7.117 7.091 18.663 7.091 25.779 0 7.117-7.117 7.117-18.663 0-25.779l-173.209-173.21c-14.976-14.976-16.358-29.286-9.984-35.661 2.79-2.765 7.040-4.045 11.93-3.533 7.501 0.793 16.051 5.658 24.038 13.645l246.579 246.579c16.921 16.922 23.399 36.813 18.253 56.038-5.069 18.918-20.582 34.432-39.501 39.501-19.226 5.145-39.117-1.357-56.038-18.253-73.575-73.6-221.030-221.056-257.843-257.843-48.026-48.026-36.531-103.296-5.529-134.323 31.027-31.002 86.297-42.522 134.349 5.529l257.869 257.843c7.091 7.117 18.663 7.117 25.753 0 7.117-7.117 7.117-18.663 0-25.754l-257.869-257.869c-30.387-30.413-64.384-43.162-96.487-43.162z" />
<glyph unicode="&#xe60b;" d="M495.079 242.099c-10.061 10.675-58.471 58.163-80.615 79.847-6.81 6.63-16.538 10.854-26.701 10.854-10.137 0-131.738 0-131.738 0s-121.6 0-131.763 0-19.917-4.25-26.701-10.88c-22.144-21.683-70.605-69.171-80.64-79.847-12.518-13.312-19.379-23.936-16.102-37.095l14.361-78.695c3.251-13.159 17.664-23.936 32.026-23.936h417.587c14.361 0 28.774 10.777 32.026 23.936l14.387 78.695c3.251 13.159-3.61 23.808-16.128 37.12zM359.629 225.049c-2.611 0-4.941-1.331-6.118-3.405l-20.915-52.121h-153.165l-20.915 52.121c-1.152 2.074-3.533 3.405-6.119 3.405h-90.752l52.249 59.11h284.263l52.224-59.11h-90.752z" />
<glyph unicode="&#xe60c;" d="M486.4 56.32c0 0-51.2 249.165-275.84 249.165v98.995l-184.96-165.248 184.96-171.29v111.565c121.933 0 212.275-10.803 275.84-123.187z" />
<glyph unicode="&#xe60d;" d="M184.96 335.872v68.608l-184.96-165.248 184.96-171.29v71.142l-108.16 100.147 108.16 96.64zM312.96 305.51v98.97l-184.96-165.248 184.96-171.29v111.565c84.301 0 135.475-10.803 199.040-123.187 0 0-9.395 249.19-199.040 249.19z" />
<glyph unicode="&#xe60e;" d="M301.44 179.507v-111.539l184.96 171.264-184.96 165.248v-98.969c-224.64 0-275.84-249.191-275.84-249.191 63.565 112.384 153.907 123.187 275.84 123.187z" />
<glyph unicode="&#xe60f;" d="M379.392 116.531c-63.104 22.989-83.277 42.394-83.277 83.942 0 24.935 19.277 16.793 27.725 62.464 3.507 18.944 20.531 0.307 23.808 43.545 0 17.229-9.293 21.529-9.293 21.529s4.736 25.523 6.579 45.133c2.253 24.474-14.131 87.654-101.734 87.654-87.578 0-104.013-63.181-101.709-87.654 1.843-19.61 6.579-45.133 6.579-45.133s-9.319-4.275-9.319-21.529c3.251-43.238 20.275-24.601 23.782-43.545 8.474-45.671 27.75-37.53 27.75-62.464 0-41.549-20.173-60.954-83.277-83.942-63.334-23.040-104.448-46.567-104.448-62.618 0-16.026 0-53.888 0-53.888h481.28c0 0 0 37.863 0 53.888s-41.139 39.552-104.448 62.618z" />
<glyph unicode="&#xe610;" d="M512 5.12c0 0-0.998 96.947-6.938 106.983-8.832 14.976-29.337 25.241-67.43 41.165-37.965 15.872-50.125 29.286-50.125 57.933 0 17.229 11.597 11.597 16.691 43.111 2.099 13.081 12.339 0.231 14.31 30.054 0 11.904-5.581 14.873-5.581 14.873s2.816 17.613 3.942 31.155c1.382 16.896-8.525 60.493-61.235 60.493s-62.567-43.623-61.209-60.493c1.101-13.542 3.917-31.155 3.917-31.155s-5.581-2.969-5.581-14.873c1.971-29.85 12.211-16.998 14.336-30.054 5.069-31.514 16.666-25.882 16.666-43.111 0-19.481-5.632-31.923-21.171-42.855 82.944-41.523 94.080-49.997 94.080-87.117v-76.109h115.328zM261.735 138.88c-50.662 21.145-66.816 39.014-66.816 77.235 0 22.938 15.463 15.463 22.246 57.498 2.791 17.433 16.487 0.281 19.072 40.064 0 15.872-7.45 19.815-7.45 19.815s3.789 23.475 5.274 41.549c1.843 22.477-11.367 80.64-81.638 80.64s-83.456-58.138-81.613-80.64c1.485-18.074 5.248-41.549 5.248-41.549s-7.424-3.942-7.424-19.815c2.637-39.808 16.282-22.656 19.097-40.064 6.784-42.035 22.246-34.535 22.246-57.498 0-38.221-16.205-56.089-66.816-77.235-15.437-6.451-43.161-16.461-43.161-40.474v-93.286h355.687c0 0 0 55.168 0 69.913 0 21.939-43.187 42.599-93.952 63.846z" />
<glyph unicode="&#xe611;" d="M316.851 116.531c-63.769 22.989-84.147 42.394-84.147 83.942 0 24.935 19.482 16.793 28.032 62.464 3.558 18.944 20.762 0.307 24.013 43.545 0 17.229-9.37 21.529-9.37 21.529s4.787 25.523 6.63 45.133c2.304 24.474-14.285 87.654-102.81 87.654s-105.114-63.181-102.809-87.654c1.869-19.635 6.656-45.133 6.656-45.133s-9.395-4.275-9.395-21.529c3.302-43.238 20.505-24.601 24.013-43.545 8.576-45.671 28.058-37.53 28.058-62.464 0-41.549-20.403-60.954-84.173-83.942-7.68-2.739-25.984-7.040-41.549-13.773v-102.759h409.6c0 0 0 37.863 0 53.888s-28.749 39.577-92.749 62.643zM435.2 256v76.8h-51.2v-76.8h-76.8v-51.2h76.8v-76.8h51.2v76.8h76.8v51.2h-76.8z" />
<glyph unicode="&#xe612;" d="M460.8 435.2h-409.6c-28.16 0-51.2-23.040-51.2-51.2v-307.2c0-28.16 23.040-51.2 51.2-51.2h409.6c28.185 0 51.2 23.040 51.2 51.2v307.2c0 28.16-23.014 51.2-51.2 51.2zM460.8 76.8h-409.6v307.2h409.6v-307.2zM230.4 176.64h-128v-46.080h128v46.080zM230.4 253.44h-128v-46.080h128v46.080zM230.4 330.24h-128v-46.080h128v46.080zM407.040 166.4c0 0-43.52 11.366-43.52 33.741 0 21.299 28.185 30.259 28.185 73.779 0 35.328-10.752 56.32-46.106 56.32s-46.080-20.966-46.080-56.32c0-43.52 28.16-52.48 28.16-73.779 0-22.375-43.495-33.741-43.495-33.741-2.586 0-2.586-35.84-2.586-35.84h128c0 0 0 35.84-2.56 35.84z" />
<glyph unicode="&#xe613;" d="M384 81.92h-332.8v230.4h66.432c0 0 17.639 22.938 55.552 51.2h-147.584c-14.131 0-25.6-11.469-25.6-25.6v-281.6c0-14.157 11.469-25.6 25.6-25.6h384c14.157 0 25.6 11.443 25.6 25.6v95.897l-51.2-42.112v-28.185zM342.067 259.84v-90.88l169.933 133.146-169.933 127.974v-80.128c-206.387-0.025-206.387-204.032-206.387-204.032 58.419 95.949 94.362 113.92 206.387 113.92z" />
<glyph unicode="&#xe614;" d="M256 435.2c-70.707 0-128-57.319-128-128 0-122.215 128-281.6 128-281.6s128 159.386 128 281.6c0 70.681-57.293 128-128 128zM256 236.544c-38.169 0-69.12 30.951-69.12 69.12s30.951 69.12 69.12 69.12 69.12-30.95 69.12-69.12-30.95-69.12-69.12-69.12z" />
<glyph unicode="&#xe615;" d="M503.885 357.786l-119.654 74.931c-5.299 3.328-11.93 3.328-17.229 0l-111.002-69.529-111.001 69.504c-5.299 3.328-11.929 3.328-17.229 0l-119.654-74.906c-5.018-3.149-8.115-8.858-8.115-14.976v-299.699c0-6.298 3.225-12.135 8.499-15.232s11.699-3.021 16.87 0.231l111.001 69.529 111.001-69.529c5.299-3.328 11.93-3.328 17.255 0l111.002 69.529 111.001-69.529c2.637-1.664 5.632-2.509 8.627-2.509 2.841 0 5.683 0.768 8.243 2.279 5.248 3.098 8.499 8.935 8.499 15.232v299.699c0 6.118-3.098 11.827-8.115 14.976zM119.629 127.923l-86.144-53.939v258.919l86.144 53.939v-258.918zM239.257 73.984l-86.144 53.939v258.918l86.144-53.939v-258.918zM358.887 127.923l-86.118-53.939v258.919l86.118 53.939v-258.918zM478.49 73.984l-86.118 53.939v258.918l86.118-53.939v-258.918z" />
<glyph unicode="&#xe616;" d="M252.723 476.135c-135.731-1.817-244.275-113.305-242.458-249.011 1.817-135.731 113.305-244.275 249.037-242.483 135.706 1.843 244.275 113.305 242.457 249.037-1.869 135.731-113.357 244.275-249.037 242.457zM258.586 36.403c-107.136-1.459-195.149 84.25-196.608 191.411-1.408 107.136 84.275 195.149 191.437 196.583 107.136 1.433 195.149-84.249 196.583-191.411s-84.25-195.123-191.411-196.583zM139.597 115.097c0 0 116.966 16.051 166.861 65.945s65.945 166.861 65.945 166.861-116.941-16.077-166.835-65.946c-49.894-49.92-65.971-166.861-65.971-166.861zM230.784 256.717c20.966 20.992 61.056 35.865 95.462 45.107-9.241-34.329-24.192-74.727-45.031-95.539-13.926-13.926-36.505-13.926-50.432 0-13.952 13.926-13.952 36.506 0 50.432z" />
<glyph unicode="&#xe617;" d="M504.807 479.232c-17.408 17.434-34.048 0.947-90.496-26.163-151.040-72.627-414.31-220.135-414.31-220.135l226.176-32.333 32.333-226.202c0 0 147.533 263.271 220.135 414.311 27.161 56.473 43.597 73.062 26.163 90.521zM450.56 421.017l-164.301-305.075-16.666 138.65 180.966 166.425z" />
<glyph unicode="&#xe618;" d="M256 450.56c-121.575 0-220.16-98.585-220.16-220.16 0-121.6 98.585-220.16 220.16-220.16 121.6 0 220.16 98.56 220.16 220.16 0 121.575-98.56 220.16-220.16 220.16zM273.92 52.096v98.944h-35.84v-98.944c-84.659 8.397-151.962 75.725-160.384 160.384h98.944v35.84h-98.944c8.422 84.659 75.725 151.987 160.384 160.384v-98.944h35.84v98.944c84.685-8.397 151.987-75.725 160.384-160.384h-98.944v-35.84h98.944c-8.397-84.659-75.699-151.987-160.384-160.384z" />
<glyph unicode="&#xe619;" d="M384 153.6c-17.613 0-33.741-5.965-46.695-15.923l-133.607 80.154c0.64 4.096 1.101 8.295 1.101 12.57 0 4.301-0.461 8.474-1.101 12.57l133.607 80.154c12.954-9.959 29.082-15.923 46.695-15.923 42.394 0 76.8 34.381 76.8 76.8s-34.406 76.8-76.8 76.8-76.8-34.381-76.8-76.8c0-4.275 0.461-8.474 1.127-12.57l-133.607-80.179c-12.953 9.984-29.107 15.949-46.72 15.949-42.419 0-76.8-34.381-76.8-76.8 0-42.394 34.381-76.8 76.8-76.8 17.613 0 33.767 5.965 46.72 15.923l133.607-80.154c-0.666-4.096-1.127-8.269-1.127-12.57 0-42.394 34.406-76.8 76.8-76.8s76.8 34.406 76.8 76.8-34.406 76.8-76.8 76.8z" />
<glyph unicode="&#xe61a;" d="M174.080 230.4c0-45.235 36.685-81.92 81.92-81.92s81.92 36.711 81.92 81.92c0 45.235-36.685 81.92-81.92 81.92s-81.92-36.685-81.92-81.92zM115.942 261.12c14.054 64.409 71.424 112.64 140.058 112.64 39.603 0 75.418-16.051 101.351-41.984 12.007-12.007 31.462-12.007 43.469 0 11.981 12.007 11.981 31.463 0 43.443-37.069 37.043-88.269 59.981-144.819 59.981-91.699 0-169.319-60.262-195.405-143.36h-60.595v-61.44h81.92c25.575 0 31.847 20.813 34.022 30.72zM430.080 230.4c-25.549 0-31.846-20.813-34.022-30.72-14.055-64.409-71.399-112.64-140.058-112.64-39.577 0-75.418 16.026-101.351 41.984-12.006 12.007-31.463 12.007-43.443 0s-12.007-31.462 0-43.443c37.043-37.043 88.243-59.981 144.793-59.981 91.699 0 169.318 60.262 195.405 143.36h60.595v61.44h-81.92z" />
<glyph unicode="&#xe61b;" d="M440.038 380.135c-42.803 39.296-112.205 39.296-155.008 0l-29.030-26.675-29.056 26.675c-42.803 39.296-112.179 39.296-154.982 0-48.154-44.186-48.154-115.815 0-160.026l184.038-168.909 184.039 168.909c48.154 44.211 48.154 115.84 0 160.026z" />
<glyph unicode="&#xe61c;" d="M440.038 380.16c-42.803 39.271-112.205 39.271-155.008 0l-29.030-26.675-29.056 26.675c-42.803 39.271-112.179 39.271-154.982 0-48.154-44.211-48.154-115.814 0-160.025l184.038-168.935 184.039 168.935c48.154 44.186 48.154 115.815 0 160.026zM412.8 246.4l-156.8-146.279-156.774 146.279c-15.821 14.489-21.939 33.587-21.939 53.76 0 20.122 3.533 36.659 19.353 51.175 13.952 12.825 32.717 19.865 52.787 19.865 20.096 0 38.861-12.185 52.813-25.011l53.76-46.745 53.76 46.745c13.952 12.826 32.691 25.011 52.787 25.011s38.861-7.040 52.839-19.865c15.795-14.515 19.303-31.053 19.353-51.175 0-20.147-6.144-39.27-21.939-53.76z" />
<glyph unicode="&#xe61d;" d="M256 455.68l61.133-172.083h164.147l-133.939-101.069 47.872-177.408-139.213 106.342-139.213-106.342 47.872 177.408-133.939 101.069h164.147z" />
<glyph unicode="&#xe61e;" d="M481.28 283.597h-164.173l-61.133 172.083-61.107-172.083h-164.147l133.913-101.069-47.872-177.408 139.213 106.342 139.213-106.342-47.872 177.408 133.965 101.069zM255.975 161.689l-77.107-64.025 31.795 91.187-72.986 58.88 90.137-2.56 28.135 103.424 28.16-103.424 90.137 2.56-72.986-58.88 31.821-91.187-77.107 64.025z" />
<glyph unicode="&#xe61f;" d="M349.389 297.907c-3.379 9.088 90.624 93.056 35.789 161.075-12.851 15.898-56.346-76.185-118.144-117.862-34.073-22.989-113.433-71.936-113.433-98.995v-175.13c0-32.538 125.798-66.995 221.414-66.995 35.046 0 85.786 219.52 85.786 254.413 0 34.995-108.032 34.381-111.411 43.495zM128 295.475c-16.819 0-76.8-10.24-76.8-79.923v-124.109c0-69.683 59.981-77.337 76.8-77.337s-25.6 14.643-25.6 57.831v163.149c0 45.261 42.419 60.391 25.6 60.391z" />
<glyph unicode="&#xe620;" d="M162.637 162.867c3.353-9.088-90.624-93.031-35.789-161.049 12.851-15.923 56.346 76.16 118.144 117.863 34.074 22.989 113.408 71.962 113.408 98.995v175.104c0 32.563-125.773 67.021-221.389 67.021-35.047 0-85.811-219.52-85.811-254.413 0-34.995 108.058-34.381 111.437-43.52zM384 165.325c16.845 0 76.8 10.214 76.8 79.923v124.083c0 69.683-59.955 77.363-76.8 77.363-16.819 0 25.6-14.669 25.6-57.83v-163.149c0-45.261-42.419-60.391-25.6-60.391z" />
<glyph unicode="&#xe621;" d="M148.48 174.080v158.72h-97.28c-28.16 0-51.2-23.040-51.2-51.2v-153.6c0-28.16 23.040-51.2 51.2-51.2h25.6v-76.8l76.8 76.8h128c28.16 0 51.2 23.040 51.2 51.2v46.592c-1.639-0.358-3.379-0.538-5.12-0.538h-179.2zM460.8 460.8h-230.4c-28.16 0-51.2-23.040-51.2-51.2v-204.8h179.2l76.8-76.8v76.8h25.6c28.16 0 51.2 23.040 51.2 51.2v153.6c0 28.16-23.040 51.2-51.2 51.2z" />
<glyph unicode="&#xe622;" d="M409.6 409.6h-307.2c-28.16 0-51.2-23.040-51.2-51.2v-179.2c0-28.16 23.040-51.2 51.2-51.2h102.4l102.4-76.8v76.8h102.4c28.16 0 51.2 23.040 51.2 51.2v179.2c0 28.16-23.040 51.2-51.2 51.2z" />
<glyph unicode="&#xe623;" d="M125.85 389.043c-41.216 0-74.65-34.381-74.65-76.8s33.433-76.8 74.65-76.8c74.624 0 24.883-148.48-74.65-148.48v-35.815c177.613 0 247.219 337.895 74.65 337.895zM340.864 389.043c-41.216 0-74.649-34.381-74.649-76.8s33.433-76.8 74.649-76.8c74.624 0 24.883-148.48-74.649-148.48v-35.815c177.638 0 247.245 337.895 74.649 337.895z" />
<glyph unicode="&#xe624;" d="M480.512 222.72l-205.415 205.594c-10.496 10.906-27.673 10.906-38.169 0l-205.44-205.594c-10.521-10.88-6.605-19.815 8.704-19.815h42.829v-157.901c0-11.392 0.487-20.711 21.094-20.711h99.712v158.413h104.32v-158.413h104.678c15.719 0 16.154 9.293 16.154 20.711v157.901h42.803c15.283 0 19.226 8.909 8.729 19.815z" />
<glyph unicode="&#xe625;" d="M409.6 435.2h-205.312c-28.16 0-50.688-22.528-50.688-50.688v-205.312c0-28.16 23.040-51.2 51.2-51.2h204.8c28.16 0 51.2 23.040 51.2 51.2v204.8c0 28.16-23.040 51.2-51.2 51.2zM409.6 179.2h-204.8v204.8h204.8v-204.8zM102.4 230.4h-51.2v-153.6c0-28.16 23.040-51.2 51.2-51.2h153.6v51.2h-153.6v153.6z" />
<glyph unicode="&#xe626;" d="M449.152 90.419l-96.743 96.743c14.592 23.987 22.989 52.096 22.989 82.227 0 87.45-75.801 163.251-163.277 163.251-87.45 0-158.362-70.912-158.362-158.361 0-87.475 75.776-163.277 163.251-163.277 29.082 0 56.32 7.885 79.744 21.581l97.255-97.28c9.549-9.523 24.96-9.523 34.457 0l24.141 24.115c9.498 9.523 6.041 21.504-3.456 31.002zM102.502 274.279c0 60.544 49.075 109.645 109.619 109.645 60.569 0 114.535-53.965 114.535-114.534s-49.075-109.645-109.645-109.645-114.509 53.965-114.509 114.535z" />
<glyph unicode="&#xe627;" d="M438.144 412.57c-42.906 42.88-96.743 58.573-113.894 41.421l-69.017-69.043c-10.47-10.471-19.609-45.517-15.411-80.973l-208.922-208.947c-12.39-12.365-2.355-42.496 22.425-67.277 24.781-24.807 54.938-34.816 67.302-22.451l208.922 208.922c35.481-4.199 70.528 4.941 80.973 15.411l69.043 69.043c17.152 17.152 1.459 70.989-41.421 113.894zM208.41 203.776c-9.549 9.523-6.425 28.083 6.887 41.421s31.872 16.435 41.421 6.912c9.498-9.523 6.425-28.083-6.912-41.421s-31.872-16.435-41.395-6.912zM381.209 355.61c-33.229 33.229-41.575 77.056-38.63 80.025 2.969 2.969 45.082-7.117 78.336-40.346 33.229-33.229 43.187-75.443 40.32-78.31s-46.822 5.401-80.025 38.631z" />
<glyph unicode="&#xe628;" d="M38.4 307.149h435.2c14.592 0 12.211 15.565 4.941 18.099s-88.141 33.101-102.221 33.101h-23.040v76.8h-194.56v-76.8h-23.040c-14.080 0-94.951-30.566-102.221-33.101s-9.677-18.099 4.941-18.099zM478.72 278.989h-445.44c-14.080 0-28.16-16.64-28.16-30.72v-89.6c0-14.080 14.080-30.72 28.16-30.72h50.739l-22.579-128h389.12l-22.579 128h50.739c14.080 0 28.16 16.64 28.16 30.72v89.6c0 14.080-14.080 30.72-28.16 30.72zM112.64 51.149l35.84 166.4h215.040l35.815-166.4h-286.695z" />
<glyph unicode="&#xe629;" d="M375.040 268.467c-58.368 125.619-88.704 173.338-184.089 171.341-33.971-0.691-25.805 24.602-51.712 15.002-25.882-9.575-3.661-23.629-30.157-45.363-74.291-60.979-67.456-117.401-32.998-251.904 14.541-56.627-34.995-59.418-15.411-114.329 14.311-40.013 119.782-56.806 231.066-15.488 111.283 41.267 181.504 123.213 167.193 163.277-19.584 54.887-59.289 24.576-83.891 77.466zM279.654 61.542c-99.353-36.864-181.043-15.181-184.499-5.555-5.939 16.615 32.077 72.089 145.69 114.253s177.024 26.522 183.655 7.962c3.917-10.957-45.44-79.769-144.845-116.659zM247.731 150.989c-51.968-19.277-88.064-41.319-111.437-61.184 16.461-14.95 47.257-18.586 77.978-7.193 39.091 14.515 63.104 47.821 53.606 74.368-0.103 0.333-0.281 0.615-0.409 0.921-6.4-2.074-12.979-4.377-19.738-6.912z" />
<glyph unicode="&#xe62a;" d="M201.19 110.233l-20.736-20.582c-17.971-17.792-47.181-17.817-65.126 0-8.627 8.576-13.363 19.917-13.363 32.026s4.761 23.475 13.363 32.051l76.288 75.699c15.795 15.693 45.542 38.758 67.226 17.255 9.959-9.881 26.035-9.805 35.891 0.128 9.882 9.933 9.83 26.010-0.128 35.891-36.839 36.557-91.315 29.798-138.752-17.255l-76.288-75.699c-18.279-18.176-28.365-42.343-28.365-68.070 0-25.702 10.087-49.869 28.391-68.045 18.841-18.714 43.571-28.032 68.301-28.032s49.511 9.318 68.352 28.032l20.736 20.608c9.958 9.882 10.010 25.959 0.128 35.865-9.881 9.933-25.958 9.984-35.917 0.128zM432.409 404.25c-39.577 39.27-94.899 41.395-131.558 5.043l-25.831-25.625c-9.959-9.882-10.035-25.933-0.154-35.891 9.907-9.959 25.959-10.010 35.891-0.128l25.83 25.625c18.969 18.841 43.827 11.034 60.058-5.043 8.627-8.55 13.363-19.942 13.363-32.025 0-12.109-4.762-23.475-13.363-32.026l-81.408-80.743c-37.197-36.915-54.682-19.61-62.131-12.211-9.958 9.882-26.010 9.805-35.865-0.128-9.881-9.959-9.831-26.035 0.128-35.891 17.075-16.947 36.608-25.344 57.037-25.344 25.037 0 51.481 12.595 76.621 37.555l81.382 80.743c18.304 18.15 28.39 42.317 28.39 68.019s-10.087 49.894-28.39 68.070z" />
<glyph unicode="&#xe62b;" d="M473.241 366.592c-292.045-116.915-173.747 197.76-400.256 32.103l-47.386-16.998 93.85-368.896h51.686l-45.952 180.685c202.086 169.421 120.269-184.601 359.322 162.739 5.555 8.064-1.869 14.131-11.264 10.368z" />
<glyph unicode="&#xe62c;" d="M429.696 230.4c0 26.829 16.512 48 41.344 62.541-4.505 14.95-10.394 29.312-17.69 42.803-27.904-7.296-50.457 3.635-69.401 22.579-18.995 18.97-24.806 41.549-17.51 69.401-13.491 7.296-27.801 13.261-42.803 17.715-14.541-24.858-40.832-41.37-67.635-41.37s-53.069 16.512-67.635 41.37c-15.001-4.454-29.312-10.419-42.803-17.69 7.27-27.879 1.485-50.457-17.485-69.427-18.969-18.944-41.549-29.875-69.401-22.605-7.296-13.465-13.235-27.827-17.715-42.777 24.858-14.541 41.37-35.712 41.37-62.541 0-26.803-16.512-53.095-41.37-67.661 4.48-14.976 10.419-29.312 17.715-42.803 27.879 7.296 50.432 1.485 69.401-17.485s24.755-41.523 17.485-69.401c13.491-7.296 27.827-13.261 42.803-17.715 14.566 24.883 40.832 41.37 67.635 41.37s53.12-16.512 67.661-41.37c15.002 4.48 29.312 10.419 42.803 17.715-7.296 27.878-1.51 50.432 17.51 69.401 18.944 18.944 41.498 29.875 69.401 22.605 7.296 13.491 13.209 27.827 17.69 42.803-24.858 14.567-41.37 35.738-41.37 62.541zM256 136.883c-51.635 0-93.491 41.882-93.491 93.517s41.856 93.517 93.491 93.517c51.661 0 93.517-41.882 93.517-93.517s-41.856-93.517-93.517-93.517z" />
<glyph unicode="&#xe62d;" d="M80.231 310.016c23.91 18.56 43.725 5.786 70.169-24.832 2.995-3.43 6.989 0.589 9.242 2.56 2.253 1.997 37.171 33.382 38.861 34.841 1.715 1.51 3.763 4.327 1.049 7.475s-12.647 16-19.021 24.32c-46.285 60.544 126.618 101.607 100.045 102.247-13.491 0.358-67.738 0.973-75.827 0.128-32.845-3.481-74.087-34.176-94.848-48.461-27.136-18.662-37.299-29.491-38.963-31.001-7.68-6.733-1.229-22.195-15.155-34.406-14.72-12.902-23.885-3.149-32.41-10.624-4.25-3.738-16.051-12.57-19.456-15.565-3.379-2.969-3.994-8.013-0.538-12.058 0 0 32.333-35.737 35.072-38.886 2.714-3.149 10.009-5.811 14.541-1.817 4.531 3.968 16.154 14.183 18.125 15.923 1.997 1.715-1.28 22.093 9.114 30.157zM226.381 296.807c-3.072 3.558-6.861 3.635-10.163 0.717l-36.736-32.025c-2.867-2.56-3.251-7.271-0.666-10.24l212.327-241.613c4.941-5.735 13.543-6.323 19.251-1.357l24.858 20.787c5.658 4.966 6.247 13.671 1.305 19.379l-210.176 244.352zM509.491 399.642c-1.894 12.647-8.448 9.984-11.853 4.608-3.353-5.351-18.457-28.186-24.653-38.502-6.144-10.291-21.248-30.489-49.51-10.547-29.389 20.787-19.149 35.303-14.055 45.056 5.146 9.805 20.941 37.248 23.245 40.704 2.253 3.456-0.409 13.491-9.498 9.293-9.139-4.224-64.589-26.265-72.295-57.856-7.859-32.179 6.605-60.903-21.76-89.447l-34.355-35.84 34.509-40.141 42.342 40.218c10.112 10.137 31.642 19.994 51.149 15.565 41.805-9.472 64.589 6.247 78.361 32.179 12.339 23.219 10.291 72.064 8.371 84.71zM70.144 49.894c-5.325-5.376-5.325-14.080 0-19.43l24.346-23.808c5.325-5.351 13.773-3.098 19.097 2.253l125.619 123.52-38.502 43.853-130.56-126.387z" />
<glyph unicode="&#xe62e;" d="M286.233 118.938c0 37.145 28.16 57.677 74.087 88.089 56.192 37.248 126.080 83.584 126.080 193.511 0 9.907-8.089 17.92-18.099 17.92h-87.834c-12.416 22.938-49.357 47.462-124.467 47.462-75.085 0-112.051-24.525-124.442-47.462h-87.834c-10.010 0-18.125-8.013-18.125-17.92 0-109.927 69.913-156.262 126.105-193.485 45.952-30.413 74.112-50.944 74.112-88.089v-33.562c-48.256-5.376-83.712-23.219-83.712-44.442 0-25.447 50.995-46.080 113.894-46.080 62.925 0 113.92 20.634 113.92 46.080 0 21.223-35.456 39.065-83.712 44.442v33.536zM357.299 248.32c14.541 30.72 26.035 72.371 27.878 134.298h64.231c-6.118-69.094-47.667-104.013-92.109-134.298zM256 434.534c69.939 0.026 97.28-28.569 97.255-39.168 0-10.675-27.264-39.245-97.255-39.296-69.939 0.077-97.229 28.621-97.229 39.296-0.025 10.599 27.29 39.219 97.229 39.168zM62.617 382.618h64.205c1.869-61.926 13.363-103.578 27.879-134.298-44.441 30.285-85.965 65.203-92.083 134.298z" />
<glyph unicode="&#xe62f;" d="M493.849 476.007c-2.765 8.064-11.495 12.313-19.481 9.523s-12.185-11.623-9.395-19.712c23.552-68.352-23.194-119.399-58.803-146.714l-14.413 20.839c-4.813 6.963-15.667 12.774-24.064 12.903l-80.768-0.384c-8.397 0.128-20.889-3.763-27.801-8.627l-237.977-168.653c-11.52-8.166-14.361-24.243-6.272-35.917l108.186-156.339c8.064-11.674 21.043-10.266 32.563-2.125l237.978 168.679c6.912 4.864 14.771 15.462 17.562 23.501l25.293 80.538c2.739 8.038 1.075 20.327-3.738 27.289l-8.806 12.697c47.846 36.992 97.51 102.451 69.939 182.502zM383.13 236.493c-18.457-13.082-43.879-8.525-56.807 10.137-12.902 18.663-8.423 44.39 10.035 57.472 14.643 10.394 33.664 9.625 47.36-0.461-6.912-4.198-11.623-6.605-12.519-7.040-7.629-3.635-10.906-12.851-7.296-20.582 2.611-5.607 8.089-8.909 13.849-8.909 2.176 0 4.403 0.486 6.502 1.485 4.889 2.329 10.189 5.171 15.693 8.473 2.457-15.181-3.533-31.155-16.819-40.576z" />
<glyph unicode="&#xe630;" d="M256 281.6c-42.394 0-76.8-34.407-76.8-76.8 0-42.419 34.406-76.8 76.8-76.8 42.419 0 76.8 34.381 76.8 76.8 0 42.394-34.381 76.8-76.8 76.8zM460.8 358.4h-61.414c-8.448 0-17.562 6.553-20.224 14.567l-15.872 47.642c-2.714 8.038-11.801 14.592-20.25 14.592h-174.080c-8.448 0-17.561-6.553-20.198-14.567l-15.923-47.667c-2.662-8.013-11.751-14.567-20.198-14.567h-61.44c-28.16 0-51.2-23.040-51.2-51.2v-230.4c0-28.16 23.040-51.2 51.2-51.2h409.6c28.185 0 51.2 23.040 51.2 51.2v230.4c0 28.16-23.014 51.2-51.2 51.2zM256 76.8c-70.707 0-128 57.293-128 128 0 70.682 57.293 128 128 128 70.682 0 128-57.318 128-128 0-70.707-57.318-128-128-128zM442.88 271.411c-9.882 0-17.894 8.013-17.894 17.92s8.013 17.92 17.894 17.92c9.907 0 17.92-8.013 17.92-17.92s-8.013-17.92-17.92-17.92z" />
<glyph unicode="&#xe631;" d="M440.909 306.457c-40.525 94.336-105.779 166.17-138.778 152.73-56.038-22.784 33.408-132.198-241.817-244.071-23.782-9.651-29.799-48.333-19.84-71.45 9.933-23.117 42.445-46.131 66.227-36.48 4.096 1.664 19.225 6.528 19.225 6.528 16.973-22.784 34.739-9.267 41.063-23.757 7.577-17.408 24.038-55.219 29.619-68.070 5.632-12.851 18.329-24.781 27.546-21.274 9.165 3.507 40.473 15.437 52.455 19.968s14.848 15.232 11.187 23.654c-3.942 9.063-20.122 11.725-24.729 22.323-4.634 10.599-19.712 44.519-24.038 55.219-5.888 14.541 6.631 26.368 24.832 28.262 125.286 13.056 148.711-64.333 191.36-46.976 32.921 13.466 26.214 109.056-14.31 203.392zM426.803 153.446c-7.322-2.969-56.627 35.891-88.141 109.235-31.488 73.318-27.52 140.339-20.224 143.309 7.322 2.995 55.424-43.929 86.938-117.248 31.462-73.293 28.749-132.327 21.427-135.296z" />
<glyph unicode="&#xe632;" d="M314.112 172.288c-72.627-72.601-182.631-84.941-268.032-37.12 9.856-17.562 22.169-34.099 37.12-49.050 87.552-87.552 229.504-87.552 317.056 0 87.552 87.577 87.552 229.53 0 317.082-14.95 14.951-31.462 27.264-49.050 37.12 47.846-85.401 35.481-195.405-37.094-268.032z" />
<glyph unicode="&#xe633;" d="M444.211 369.536c-79.462 52.839-168.678 71.091-274.483 40.781-82.585-23.68-158.285-117.606-164.147-198.042-6.938-95.104 67.149-176.538 197.581-176.409 140.646 0.154 193.28 67.687 194.458 88.192 1.152 20.531-54.887 58.471-18.816 97.485 45.184 48.87 85.401 7.219 109.773 13.107 24.371 5.837 36.711 80.921-44.365 134.887zM281.037 130.995c-21.274 0-38.528 17.203-38.528 38.4 0 21.223 17.254 38.4 38.528 38.4s38.502-17.178 38.502-38.4c-0.026-21.197-17.229-38.4-38.502-38.4z" />
<glyph unicode="&#xe634;" d="M136.192 381.337c-97.843-56.781-92.211-149.248-88.832-183.45 126.387 149.683 315.418 142.413 315.418 142.413s-267.981-91.879-346.701-276.199c-6.195-14.592 29.184-33.51 37.248-16.307 24.090 51.251 57.677 89.702 57.677 89.702 49.562-18.457 135.245-40.038 196.019 2.688 80.666 56.807 72.423 182.682 187.623 243.968 26.905 14.336-225.792 74.163-358.451-2.816z" />
<glyph unicode="&#xe635;" d="M302.055 455.705h-41.063v-334.643c-22.707 8.755-52.096 8.883-81.075-1.664-51.917-18.893-82.867-64.87-69.12-102.656 13.773-37.811 67.021-53.12 118.938-34.227 44.109 16.051 72.96 51.635 72.243 85.12l0.077 273.664c71.603-11.264 76.493-101.811 67.917-127.207-3.277-9.625 2.483-16.819 13.312 0 77.184 120.141-81.229 173.107-81.229 241.613z" />
<glyph unicode="&#xe636;" d="M156.416 416.538v-303.795c-16.537 3.456-35.789 2.151-54.886-4.915-42.931-15.949-58.087-54.784-46.694-86.681 11.366-31.923 44.979-44.825 87.91-28.877 36.454 13.543 60.339 43.546 59.725 71.859 0 0 0 161.101 0 250.957l181.785 41.651v-192.768c-16.538 3.456-35.789 2.151-54.887-4.915-42.957-15.949-58.112-54.784-46.72-86.681 11.392-31.923 44.979-44.825 87.936-28.877 36.48 13.543 60.313 43.546 59.75 71.859v360.038l-273.92-58.854z" />
<glyph unicode="&#xe637;" d="M478.464 170.342l-44.211 39.424c-12.8 11.418-12.8 30.055 0 41.472l44.211 39.398c12.8 11.418 9.37 22.042-7.603 23.654l-58.599 5.555c-16.973 1.613-26.112 16.205-20.275 32.435l31.104 86.579c5.837 16.231-1.305 22.144-15.846 13.133l-69.145-42.752c-14.541-9.011-33.331-4.096-41.754 10.931l-25.063 44.697c-8.397 15.027-22.323 15.104-30.899 0.179l-23.27-40.499c-8.576-14.925-28.288-21.299-43.802-14.157l-40.96 18.816c-15.539 7.117-27.469-1.127-26.547-18.381l2.227-41.344c0.921-17.229-11.802-34.995-28.263-39.424l-39.552-10.624c-16.461-4.454-19.482-17.408-6.681-28.825l44.211-39.398c12.8-11.392 12.8-30.055 0-41.447l-44.211-39.373c-12.8-11.443-9.421-22.451 7.501-24.499l53.632-6.502c16.922-2.099 26.368-17.203 20.966-33.562l-27.52-83.405c-5.401-16.409 2.304-22.81 17.101-14.208l63.053 36.454c14.822 8.601 34.714 3.84 44.237-10.445l26.189-39.347c9.498-14.361 23.808-13.543 31.719 1.741l23.014 44.339c7.962 15.309 26.957 21.555 42.214 13.901l44.391-22.195c15.309-7.654 27.059 0.205 26.137 17.459l-2.227 41.344c-0.921 17.255 11.801 34.995 28.262 39.45l39.526 10.599c16.512 4.48 19.533 17.433 6.733 28.825zM281.6 123.008h-51.2v53.76h51.2v-53.76zM281.6 204.902h-51.2v133.12h51.2v-133.12z" />
<glyph unicode="&#xe638;" d="M84.531 173.107c11.879-48.154 26.983-69.145 77.363-91.187 50.406-22.016 74.343-46.080 94.106-46.080s42.163 21.043 92.57 43.111c50.406 21.99 36.966 28.749 48.845 76.851l-141.415-68.762-171.469 86.067zM499.481 298.599l-213.12 119.347c-16.691 9.344-44.007 9.344-60.697 0l-213.145-119.347c-16.691-9.344-16.691-24.653 0-33.997l213.12-119.347c16.691-9.344 44.006-9.344 60.698 0l137.779 77.159-149.401 34.995c-5.735-1.433-12.058-2.227-18.714-2.227-26.905 0-48.717 12.979-48.717 28.979s21.811 29.005 48.717 29.005c20.889 0 38.682-7.859 45.594-18.841l158.233-51.917 39.654 22.195c16.691 9.344 16.691 24.653 0 33.997zM434.355 72.397c-1.613-9.805 32.845-26.010 36.121 2.791 14.822 129.817-10.649 167.194-10.649 167.194l-35.712-19.994c0 0.026 30.285-28.8 10.24-149.99z" />
<glyph unicode="&#xe639;" d="M426.189 354.739l-230.349 118.758c-31.565 16.614-93.773-15.488-111.641-43.75-7.962-12.647-7.398-21.76-7.398-26.931l2.841-268.16c0.179-5.709 7.373-13.363 13.491-17.152 12.775-7.834 206.336-128.64 211.789-132.070 2.944-1.843 6.451-2.688 9.882-2.688 2.918 0 5.863 0.64 8.525 1.971 5.837 2.867 9.472 8.397 9.472 14.464v281.626c0 5.862-3.43 11.264-9.011 14.208l-209.357 116.889c2.355 4.608 11.674 14.336 28.8 23.296 18.048 9.472 31.539 5.888 34.637 4.685 0 0 200.96-107.546 207.104-110.745 6.118-3.2 6.247-3.687 6.247-9.139 0-5.478 0-267.264 0-267.264 0-13.337 13.517-18.791 23.475-18.791 9.907 0 20.505 9.728 20.505 18.791v287.795c0 5.862-3.456 11.289-9.011 14.208z" />
<glyph unicode="&#xe63a;" d="M409.6 460.8h-307.2c-28.16 0-51.2-23.040-51.2-51.2v-358.4c0-28.16 23.040-51.2 51.2-51.2h307.2c28.185 0 51.2 23.040 51.2 51.2v358.4c0 28.16-23.014 51.2-51.2 51.2zM409.6 51.2h-307.2v358.4h307.2v-358.4zM281.6 179.2h-128v-25.6h128v25.6zM358.4 281.6h-102.4v-25.6h102.4v25.6zM256 307.2h102.4v51.2h-102.4v-51.2zM230.4 358.4h-76.8v-102.4h76.8v102.4zM204.8 230.4h-51.2v-25.6h51.2v25.6zM230.4 204.8h128v25.6h-128v-25.6zM358.4 128h-204.8v-25.6h204.8v25.6zM307.2 153.6h51.2v25.6h-51.2v-25.6z" />
<glyph unicode="&#xe63b;" d="M463.923 392.525c-7.577 6.553-48.793 37.76-56.499 44.391s-19.738 8.525-28.237 8.525h-246.375c-8.474 0-20.531-1.869-28.211-8.525-7.706-6.656-48.922-37.863-56.499-44.391s-13.901-16.409-11.879-30.489c2.023-14.080 49.587-332.109 49.587-332.109 2.662-8.013 11.776-14.567 20.275-14.567h299.853c8.499 0 17.613 6.579 20.275 14.567 0 0 47.539 318.029 49.587 332.109 1.997 14.080-4.301 23.936-11.878 30.489zM256 169.779c-83.149 0-100.941 117.683-104.627 141.927h47.027c7.091-35.379 23.194-95.847 57.6-95.847s50.535 60.467 57.626 95.847h47.002c-3.687-24.243-21.478-141.927-104.627-141.927zM75.853 358.4l56.474 58.88h247.347l56.474-58.88h-360.295z" />
<glyph unicode="&#xe63c;" d="M136.96-22.528h51.2l114.893 204.826h132.147c0 0 76.8 0 76.8 35.815 0 35.84-76.8 35.84-76.8 35.84h-132.147l-114.893 204.8h-51.2l63.693-204.8h-91.827l-57.626 51.225h-51.2l40.986-87.040-40.986-87.065h51.2l57.626 51.226h91.827l-63.693-204.826z" />
<glyph unicode="&#xe63d;" d="M252.851 465.894c-130.048-1.741-234.087-108.57-232.345-238.643 1.741-130.099 108.595-234.087 238.643-232.371 130.073 1.741 234.112 108.595 232.346 238.643-1.741 130.099-108.595 234.112-238.643 232.371zM253.286 435.2c35.072 0.487 68.199-7.936 97.28-23.065l-31.693-52.839c-18.995 9.242-40.32 14.464-62.873 14.464-22.528 0-43.853-5.222-62.848-14.49l-31.667 52.813c27.494 14.336 58.675 22.656 91.802 23.117zM127.129 167.552l-52.787-31.642c-14.336 27.469-22.656 58.649-23.091 91.751-0.486 35.097 7.936 68.224 23.066 97.28l52.813-31.719c-9.267-18.97-14.49-40.269-14.49-62.823 0-22.528 5.222-43.853 14.489-62.848zM258.739 25.625c-35.072-0.486-68.224 7.936-97.28 23.065l31.693 52.839c18.995-9.267 40.32-14.49 62.848-14.49 22.553 0 43.879 5.197 62.848 14.464l31.667-52.787c-27.495-14.31-58.649-22.63-91.776-23.091zM256 117.785c-62.208 0-112.615 50.432-112.615 112.615 0 62.208 50.432 112.64 112.615 112.64 62.233 0 112.64-50.432 112.64-112.64s-50.406-112.615-112.64-112.615zM384.87 167.552c9.267 18.995 14.49 40.32 14.49 62.848 0 22.553-5.223 43.853-14.49 62.848l52.787 31.693c14.336-27.495 22.681-58.649 23.117-91.776 0.461-35.098-7.962-68.224-23.091-97.28l-52.813 31.667z" />
<glyph unicode="&#xe63e;" d="M256 373.76c-167.962 0-256-123.725-256-143.36s88.038-143.36 256-143.36 256 123.725 256 143.36-88.038 143.36-256 143.36zM256 120.115c-62.822 0-113.767 49.382-113.767 110.285s50.944 110.285 113.767 110.285c62.848 0 113.792-49.382 113.792-110.285s-50.944-110.285-113.792-110.285zM256 230.4c-10.393 11.417 16.998 55.117 0 55.117-31.411 0-56.883-24.679-56.883-55.117s25.472-55.143 56.883-55.143c31.437 0 56.909 24.704 56.909 55.143 0 13.977-48.026-9.728-56.909 0z" />
<glyph unicode="&#xe63f;" d="M256 465.92c-130.073 0-235.52-105.472-235.52-235.52 0-130.073 105.447-235.52 235.52-235.52s235.52 105.447 235.52 235.52c0 130.074-105.447 235.52-235.52 235.52zM256 46.080c-101.811 0-184.32 82.534-184.32 184.32s82.509 184.32 184.32 184.32 184.32-82.534 184.32-184.32-82.509-184.32-184.32-184.32zM273.92 363.52h-35.84v-140.544l87.168-87.168 25.344 25.344-76.672 76.672z" />
<glyph unicode="&#xe640;" d="M409.6 300.979h-15.36c-5.658 0-10.24-4.608-10.24-10.24v-70.579c0-34.227-26.957-92.16-128-92.16s-128 57.933-128 92.16v70.579c0 5.632-4.633 10.24-10.24 10.24h-15.36c-5.632 0-10.24-4.608-10.24-10.24v-70.579c0-57.267 42.087-118.528 138.24-126.976v-67.584h-66.585c-5.607 0-10.214-4.608-10.214-10.24v-30.72c0-5.632 4.608-10.24 10.214-10.24h184.32c5.658 0 10.24 4.608 10.24 10.24v30.72c0 5.658-4.608 10.24-10.24 10.24h-66.534v67.584c96.179 8.448 138.24 69.734 138.24 126.976v70.579c0 5.632-4.608 10.24-10.24 10.24zM256 179.2c60.083 0 76.8 24.678 76.8 40.96v80.819h-153.6v-80.819c0-16.281 16.717-40.96 76.8-40.96zM332.8 445.44c0 16.307-16.717 40.96-76.8 40.96s-76.8-24.653-76.8-40.96v-108.621h153.6v108.621z" />
<glyph unicode="&#xe641;" d="M435.2 409.6h-23.040v-51.2h-81.92v51.2h-148.48v-51.2h-81.92v51.2h-23.040c-28.16 0-51.2-23.040-51.2-51.2v-307.2c0-28.16 23.040-51.2 51.2-51.2h358.4c28.16 0 51.2 23.040 51.2 51.2v307.2c0 28.16-23.040 51.2-51.2 51.2zM435.2 51.2h-358.4v204.8h358.4v-204.8zM158.72 460.8h-35.84v-87.040h35.84v87.040zM389.12 460.8h-35.84v-87.040h35.84v87.040z" />
<glyph unicode="&#xe642;" d="M174.157 0.025c-4.941 3.251 80.743 183.296 77.773 191.207-2.944 7.911-93.798 36.787-98.253 50.688-4.429 13.901 179.405 222.874 184.217 218.829 4.813-4.019-80.103-185.293-77.773-191.181s95.462-35.994 98.253-50.663c2.791-14.72-179.277-222.106-184.218-218.88z" />
<glyph unicode="&#xe643;" d="M389.453 290.841c-7.040 0-13.978-0.615-20.711-1.741-16.793 54.912-68.813 94.925-130.458 94.925-75.213 0-136.167-59.597-136.167-133.12 0-6.553 0.512-13.005 1.459-19.328-3.609 0.41-7.245 0.691-10.983 0.691-51.123 0-92.595-40.551-92.595-90.522 0-49.997 41.472-90.522 92.595-90.522h296.858c67.712 0 122.547 53.657 122.547 119.808s-54.861 119.808-122.547 119.808zM291.123 180.48c-12.672-18.022-66.944-73.959-69.248-76.314-2.662-3.277-10.010-8.781-16.973-4.25-1.997 1.305-4.403 3.917-4.403 9.063 0 4.941 2.253 9.984 2.535 10.547l26.445 58.522c-4.966 1.971-13.491 5.427-20.121 8.32l-1.767 0.768c-6.707 2.816-15.053 6.375-15.053 15.565 0 4.377 2.099 9.498 6.375 15.591 12.672 18.023 66.944 73.933 69.248 76.314 2.663 3.277 9.984 8.781 16.973 4.275 1.997-1.306 4.403-3.917 4.403-9.063 0-4.941-2.253-9.984-2.534-10.547l-26.445-58.522c4.966-1.997 13.491-5.453 20.122-8.32l1.741-0.743c6.707-2.841 15.053-6.4 15.053-15.591 0.026-4.429-2.074-9.523-6.349-15.616z" />
<glyph unicode="&#xe644;" d="M261.197 472.038c-0.666 5.478-9.728 5.478-10.393 0-22.605-181.965-138.163-219.469-138.163-345.933 0-78.106 65.613-141.44 143.36-141.44s143.36 63.36 143.36 141.44c0 126.464-115.558 163.968-138.163 345.933zM239.386 270.899c-1.536-5.606-3.149-11.392-4.813-17.331-10.266-36.455-21.913-77.799-21.913-125.594 0-25.907-15.309-35.098-29.619-35.098-16.333 0-29.594 13.337-29.594 29.849 0 56.499 27.213 93.389 51.226 125.952 7.526 10.189 14.618 19.814 20.403 29.44 2.637 4.378 9.754 4.199 12.979-0.154 1.459-2.099 1.971-4.659 1.331-7.065z" />
<glyph unicode="&#xe645;" d="M256 465.92c-130.073 0-235.52-105.447-235.52-235.52s105.447-235.52 235.52-235.52 235.52 105.447 235.52 235.52-105.447 235.52-235.52 235.52zM256 153.6c-42.419 0-76.8 34.406-76.8 76.8 0 42.419 34.381 76.8 76.8 76.8 42.394 0 76.8-34.407 76.8-76.8s-34.406-76.8-76.8-76.8z" />
<glyph unicode="&#xe646;" d="M232.96 204.749h46.080v-51.2h232.96c0 0-3.789 114.125-5.12 149.863-1.255 33.945-13.389 54.938-51.2 54.938h-82.125c-12.723 23.987-26.419 49.792-30.618 57.728-8.474 15.975-11.366 19.072-30.208 19.072h-113.459c-18.841 0-21.734-3.097-30.208-19.072-4.198-7.936-17.894-33.741-30.618-57.728h-82.125c-37.811 0-49.792-20.992-51.2-54.938s-5.12-149.863-5.12-149.863h232.96v51.2zM195.84 386.125c5.863 11.059 7.885 13.209 20.889 13.209h78.515c13.056 0 15.053-2.151 20.889-13.209 2.202-4.147 8.141-15.36 14.745-27.75h-149.76c6.579 12.365 12.518 23.577 14.72 27.75zM279.040 76.749h-46.080v51.2h-220.16c0 0 3.2-46.029 5.12-85.043 0.794-16.205 5.555-42.957 46.054-42.957h384.051c40.499 0 45.159 26.777 46.055 42.957 2.227 40.115 5.12 85.043 5.12 85.043h-220.16v-51.2z" />
<glyph unicode="&#xe647;" d="M67.686 323.661c44.723 38.4 80.077 68.787 175.923 14.592 46.054-26.035 83.2-35.815 114.125-35.815 54.144 0 89.216 30.131 119.552 56.167 10.829 9.293 12.237 25.805 3.123 36.838s-25.241 12.467-36.070 3.175c-44.723-38.425-80.051-68.787-175.949-14.592-126.669 71.552-186.010 20.583-233.677-20.377-10.803-9.293-12.211-25.779-3.123-36.813s25.267-12.493 36.096-3.175zM444.313 267.879c-44.723-38.4-80.051-68.787-175.949-14.592-126.643 71.552-185.984 20.583-233.651-20.352-10.829-9.293-12.237-25.805-3.123-36.839s25.241-12.467 36.071-3.175c44.723 38.426 80.077 68.787 175.923 14.618 46.055-26.035 83.2-35.84 114.125-35.84 54.144 0 89.216 30.131 119.552 56.192 10.829 9.293 12.237 25.779 3.123 36.813-9.088 11.059-25.241 12.467-36.070 3.175zM444.313 137.139c-44.723-38.4-80.051-68.787-175.949-14.592-126.643 71.552-186.010 20.608-233.651-20.352-10.829-9.293-12.237-25.805-3.123-36.839s25.241-12.467 36.071-3.175c44.749 38.425 80.077 68.762 175.949 14.618 46.055-26.035 83.2-35.84 114.125-35.84 54.144 0 89.216 30.131 119.552 56.192 10.829 9.267 12.237 25.779 3.123 36.813s-25.267 12.493-36.096 3.175z" />
<glyph unicode="&#xe648;" d="M399.36 369.203c0 54.784 0 60.135 0 60.135 0 20.224-64.179 57.063-143.36 57.063s-143.36-36.838-143.36-57.063c0 0 0-5.35 0-60.135s99.251-100.019 99.251-138.803c0-38.81-99.251-84.019-99.251-138.829 0-54.784 0-60.135 0-60.135 0-20.199 64.179-57.037 143.36-57.037s143.36 36.839 143.36 57.063c0 0 0 5.351 0 60.135 0 54.81-99.226 100.019-99.226 138.829 0 38.758 99.226 84.019 99.226 138.778zM152.064 426.777c17.817 11.239 51.225 27.725 105.319 27.725 54.118 0 102.553-27.725 102.553-27.725 3.635-2.201 17.869-9.83 8.115-15.59-21.478-12.723-63.462-26.112-112.077-26.112s-89.165 14.771-110.643 27.495c-9.754 5.786 6.733 14.208 6.733 14.208zM268.825 230.4c0-30.541 25.498-50.202 52.531-76.442 19.738-19.175 46.72-45.414 46.72-62.387v-33.997c-24.807 12.365-99.097 24.474-99.097 64.103 0 20.070-25.959 20.070-25.959 0 0-39.629-74.291-51.738-99.097-64.103v33.997c0 16.947 27.008 43.213 46.745 62.387 27.008 26.24 52.506 45.901 52.506 76.442s-25.498 50.201-52.505 76.441c-19.738 19.175-46.745 45.44-46.745 62.362l-1.203 25.6c26.266-14.131 67.917-27.622 113.28-27.622s87.219 13.491 113.485 27.622l-1.408-25.6c0-16.921-27.008-43.187-46.72-62.362-27.034-26.24-52.531-45.901-52.531-76.441z" />
<glyph unicode="&#xe649;" d="M208.077 133.069c-17.664-30.618-5.786-55.808 18.714-69.939s52.275-11.878 69.939 18.739c17.664 30.592 129.203 303.77 119.501 309.376-9.677 5.606-190.489-227.559-208.154-258.176zM256 327.629c11.213 0 22.144-0.973 32.793-2.765 11.213 14.029 23.783 29.491 35.993 44.211-21.811 6.323-44.825 9.753-68.787 9.753-143.539 0-256-121.037-256-275.558 0-9.523 0.435-19.021 1.254-28.288 1.254-14.080 13.824-24.448 27.776-23.219 14.080 1.28 24.474 13.696 23.219 27.776-0.691 7.757-1.050 15.744-1.050 23.731 0 125.799 89.984 224.358 204.8 224.358zM440.807 295.654c-7.142-19.2-14.695-38.758-21.351-55.68 26.035-37.632 41.344-84.813 41.344-136.704 0-8.115-0.358-16.281-1.075-24.192-1.28-14.080 9.088-26.522 23.168-27.827 0.793-0.077 1.562-0.103 2.355-0.103 13.082 0 24.243 10.010 25.447 23.271 0.87 9.472 1.306 19.175 1.306 28.851 0 75.546-26.931 143.079-71.193 192.384z" />
<glyph unicode="&#xe64a;" d="M505.677 207.846c-15.974 43.725-60.595 69.811-119.347 69.811-2.279 0-4.505-0.077-6.707-0.179l-0.384 52.787c0 0 87.27 15.079 90.214 15.59s3.43 3.047 2.816 5.888c-0.589 2.841-4.275 22.63-4.813 25.011-0.717 3.328-2.637 3.251-5.299 2.791s-83.226-11.827-83.226-11.827-0.281 50.022-0.307 53.223c-0.026 3.2-1.792 4.070-4.966 4.019-3.2-0.051-23.577-0.359-26.265-0.41-2.688-0.026-4.173-1.255-4.122-3.815s0.845-59.034 0.845-59.034-78.387-13.542-80.537-13.901-4.352-1.383-3.84-3.661c0.486-2.279 4.864-27.981 5.325-30.003 0.435-2.023 1.817-3.251 4.787-2.739s74.88 12.928 74.88 12.928l0.896-51.661c-27.571-7.245-46.106-21.095-57.754-33.357-19.661-20.659-30.899-48.307-30.899-75.853 0-40.653 24.832-64.743 59.571-68.992 80.973-9.907 131.047 78.31 147.712 120.678 28.109-38.528 6.579-111.462-53.606-153.063-1.075-0.793-2.483-3.303-0.819-5.299s13.824-16.947 15.846-19.405c2.022-2.406 5.274-1.459 6.553-0.538 64.256 44.211 93.696 115.507 73.447 171.008zM316.57 126.259c-24.704 3.098-24.141 23.399-24.141 37.197 0 19.789 8.371 40.448 22.4 55.194 8.601 9.037 19.2 15.898 31.462 20.455l2.099-109.491c-9.805-3.353-20.403-4.762-31.821-3.353zM378.726 140.39l1.152 105.191c2.151 0.102 4.275 0.256 6.451 0.256 19.789 0 38.272-3.712 48.281-9.267s-26.189-69.427-55.885-96.179zM149.581 336.691c-0.768 2.406-2.611 3.686-4.992 3.686h-49.92c-2.355 0-4.224-1.28-4.966-3.686-10.522-33.255-89.114-281.395-89.498-282.65-0.435-1.357-0.281-1.945 1.587-1.945h44.365c1.92 0 2.535 0.589 2.893 1.843 0.41 1.305 25.831 84.941 25.831 84.941h89.498c0 0 25.421-83.661 25.805-84.941 0.41-1.255 0.973-1.843 2.918-1.843h44.339c1.894 0 2.048 0.589 1.587 1.945-0.333 1.255-78.899 249.395-89.446 282.649zM82.611 174.95l37.043 134.4 37.017-134.4h-74.061z" />
<glyph unicode="&#xe64b;" d="M134.989 309.401c5.145 0 10.112-0.768 14.771-2.227 17.664 19.789 37.248 37.811 58.445 53.786-0.87 3.712-1.408 7.603-1.408 11.623 0 5.581 0.922 10.906 2.611 15.872-23.731 17.050-49.587 31.334-77.030 42.394-25.779-15.923-48.231-36.685-66.125-61.005 13.287-23.526 29.107-45.465 47.053-65.459 6.579 3.2 13.927 5.017 21.683 5.017zM84.889 259.303c0 7.014 1.459 13.721 4.070 19.789-16.051 17.664-30.643 36.711-43.417 57.037-16-31.795-25.063-67.712-25.063-105.728 0-44.058 12.134-85.248 33.178-120.499 7.501 42.368 21.785 82.432 41.472 119.143-6.4 8.397-10.24 18.867-10.24 30.259zM256.896 422.707c13.261 0 25.241-5.171 34.202-13.543 26.137 11.239 53.683 19.865 82.329 25.37-34.586 19.917-74.649 31.385-117.427 31.385-29.159 0-57.063-5.35-82.816-15.053 20.454-10.112 39.962-21.862 58.266-35.174 7.475 4.429 16.154 7.014 25.447 7.014zM331.853 186.675c3.123 6.502 7.552 12.237 13.031 16.793-14.797 45.517-38.221 87.143-68.403 122.983-6.016-2.56-12.621-3.968-19.584-3.968-10.855 0-20.889 3.507-29.107 9.369-18.176-13.798-34.97-29.286-50.253-46.183 4.762-7.654 7.552-16.665 7.552-26.368 0-5.248-0.793-10.266-2.279-15.027 43.955-29.363 94.541-49.511 149.043-57.6zM396.851 119.014c0.666-9.472 1.050-19.046 1.050-28.697 0-17.024-1.101-33.741-3.149-50.202 39.962 29.184 70.349 70.579 85.709 118.759-18.176-4.403-36.813-7.552-55.834-9.37-4.48-13.696-14.669-24.807-27.776-30.49zM320.103 153.011c-58.137 9.625-112.051 31.795-158.951 63.591-7.629-4.685-16.537-7.424-26.137-7.424-3.533 0-6.938 0.384-10.266 1.075-22.451-42.599-36.813-90.112-40.96-140.441 22.425-24.038 49.792-43.392 80.537-56.397 38.144 58.649 91.495 107.213 155.776 139.597zM414.106 404.941c-37.735-3.635-73.779-13.107-107.341-27.341 0.205-1.639 0.281-3.328 0.281-5.018 0-7.91-1.869-15.36-5.146-21.99 33.536-39.373 59.571-85.248 76.032-135.45 20.352-0.384 37.786-12.851 45.286-30.592 22.682 2.304 44.749 6.656 66.022 12.902 1.459 10.752 2.279 21.735 2.279 32.947 0 69.222-29.875 131.482-77.415 174.541zM345.318 126.233c-60.032-28.109-110.183-71.399-146.535-124.314 18.304-4.582 37.478-7.040 57.216-7.040 35.559 0 69.197 7.911 99.405 21.99 4.839 23.731 7.424 48.281 7.424 73.447 0 9.063-0.435 18.074-1.101 27.008-6.041 1.92-11.597 4.966-16.409 8.909z" />
<glyph unicode="&#xe64c;" d="M452.864 365.414c-12.851 76.237-82.432 127.155-155.367 113.69-72.96-13.44-134.502-72.089-121.651-148.326 2.791-16.41 10.445-42.112 19.533-60.544l-132.48-197.709c-4.889-7.296-7.654-20.454-6.195-29.209l8.525-50.457c1.485-8.755 9.549-14.643 17.92-13.107l38.809 7.142c8.397 1.562 19.021 8.935 23.654 16.409l52.864 85.274 35.456 6.553 61.159 99.277c20.122-3.558 48.947-2.355 65.997 0.793 72.986 13.466 104.653 93.978 91.776 170.215zM388.25 326.349c-20.070-29.927-40.525-8.832-69.197 12.16-28.647 20.966-54.656 33.869-34.586 63.795 20.070 29.952 59.546 37.248 88.217 16.256 28.672-20.966 35.635-62.285 15.565-92.211z" />
<glyph unicode="&#xe64d;" d="M394.445 230.4c0 70.81 32.691 110.592 58.291 110.592 9.318 0 33.639 0 33.639 0-17.075 27.111-31.207 43.008-93.594 43.008h-256.205c-95.591 0-136.576-88.090-136.576-153.6s40.986-153.6 136.576-153.6h256.205c62.413 0 76.519 15.897 93.619 43.034 0 0-8.038 0-33.639 0s-58.317 39.783-58.317 110.567zM324.813 184.474c-4.173-6.451-17.28-0.409-17.28-0.409l-75.699 34.202c0 0-6.758-17.127-11.981-29.184s-9.242-25.728-30.951-10.445c-21.734 15.283-91.648 83.2-91.648 83.2s-8.858 7.245-4.429 14.080c4.173 6.451 17.28 0.409 17.28 0.409l75.699-34.201c0 0 6.758 17.101 11.981 29.184 5.222 12.032 9.242 25.728 30.951 10.445 21.734-15.283 91.674-83.226 91.674-83.226s8.806-7.219 4.403-14.055zM483.2 283.469h-19.149c-14.336 0-28.313-19.328-28.313-50.688s14.003-50.663 28.313-50.663h19.149c14.31 0 28.8 19.303 28.8 50.663s-14.49 50.688-28.8 50.688z" />
<glyph unicode="&#xe64e;" d="M290.074 450.56v0c-125.645 0-204.749-43.29-199.45-78.080 1.536-9.933 5.76-36.992 11.111-71.040-61.568-23.911-81.971-62.643-79.232-94.259 3.226-37.401 36.889-77.44 110.797-84.377 42.189-3.917 92.954 19.2 125.875 58.752-3.149 5.325-4.941 11.469-4.941 18.099 0 19.789 16.025 35.84 35.814 35.84s35.84-16.051 35.84-35.84c0-19.507-15.616-35.353-35.021-35.789-39.168-50.509-98.791-80.973-155.264-77.414 1.305-8.32 1.817-11.469 2.458-15.693 2.329-14.797 60.083-60.416 151.987-60.493h0.026c91.904 0.077 149.683 45.696 151.987 60.493 2.279 14.72 42.035 266.394 47.411 301.721 5.325 34.765-73.805 78.080-199.399 78.080zM58.215 210.304c-1.408 16.435 11.648 38.323 49.229 54.759 5.401-34.329 11.29-71.603 16.461-104.32-41.063 8.064-63.949 29.466-65.689 49.562zM290.048 319.385c-91.904 0.051-157.107 34.176-157.107 46.899-0.051 12.672 65.203 46.848 157.107 46.797 91.904 0.051 157.184-34.125 157.133-46.797 0-12.723-65.203-46.848-157.133-46.899z" />
<glyph unicode="&#xe64f;" d="M311.399 29.209c-0.717-7.936 5.555-14.95 13.978-15.642l102.016-8.371c8.397-0.691 15.897 5.197 16.615 13.133l7.987 84.122-132.633 10.931-7.962-84.173zM60.007 102.425l7.962-84.122c0.743-7.936 8.243-13.824 16.64-13.133l102.016 8.371c8.397 0.691 14.695 7.731 13.952 15.642l-7.987 84.147-132.583-10.906zM46.873 241.075l8.218-86.784 132.633 10.906-8.243 86.707c-0.179 2.073-0.281 4.249-0.281 6.374 0 39.834 34.458 72.218 76.8 72.218s76.8-32.41 76.8-72.218c0-2.125-0.103-4.275-0.307-6.374l-8.192-86.707 132.608-10.906 8.217 86.784c0.512 5.734 0.793 11.494 0.793 17.203 0 108.851-94.183 197.401-209.92 197.401s-209.92-88.55-209.92-197.401c0-5.709 0.282-11.469 0.794-17.203z" />
<glyph unicode="&#xe650;" d="M478.31 194.611l-80.589 191.795c-6.349 12.8-23.245 23.271-37.555 23.271h-208.307c-14.31 0-31.207-10.471-37.581-23.271l-80.563-191.795c-6.4-12.8-9.703-34.816-7.347-48.947l17.408-94.361c2.355-14.106 15.949-25.651 30.233-25.651h364.032c14.31 0 27.904 11.546 30.259 25.651l17.408 94.361c2.279 14.106-0.998 36.147-7.399 48.947zM443.392 127.385l-6.605-38.451c-1.997-14.771-15.309-26.855-29.543-26.855h-302.49c-14.259 0-27.546 12.083-29.543 26.855l-6.63 38.451c-1.971 14.771 8.064 26.855 22.349 26.855h330.137c14.285-0.026 24.32-12.083 22.323-26.855z" />
<glyph unicode="&#xe651;" d="M256 440.32c-109.543 0-177.613-36.096-173.927-65.382l36.915-303.795c1.459-11.827 56.858-50.586 137.011-50.663 80.179 0.077 135.552 38.861 137.037 50.663l36.889 303.795c3.687 29.287-64.358 65.382-173.927 65.382zM256 330.471c-80.154 0.077-137.037 28.621-137.037 39.296-0.025 10.599 56.883 39.219 137.037 39.168 80.154 0.026 137.063-28.57 137.037-39.168 0-10.675-56.858-39.219-137.037-39.296z" />
<glyph unicode="&#xe652;" d="M313.933 164.659c0 0 180.711 130.381 160.666 279.629-0.461 3.277-1.536 5.427-2.867 6.887-1.408 1.357-3.507 2.483-6.733 2.944-145.843 20.454-273.255-164.454-273.255-164.454-110.541 13.261-102.502-8.806-152.935-129.92-9.651-23.091 5.99-31.053 23.142-24.55 17.152 6.451 55.014 20.762 55.014 20.762l66.278-67.815c0 0-13.977-38.733-20.301-56.269-6.323-17.587 1.434-33.587 24.013-23.731 118.374 51.635 139.929 43.418 126.976 156.518zM339.738 316.109c-15.309 15.667-15.309 41.063 0 56.729 15.309 15.642 40.115 15.642 55.424 0 15.334-15.642 15.334-41.063 0-56.729-15.283-15.693-40.115-15.693-55.424 0z" />
<glyph unicode="&#xe653;" d="M70.733 139.213c-38.758-38.093-6.016-77.209-57.523-135.193-23.245-26.163 95.693-18.176 154.624 39.757 24.986 24.55 17.946 60.365-8.857 86.733-26.803 26.342-63.257 33.255-88.243 8.704zM500.25 469.555c-19.891 19.533-240.102-156.928-305.664-221.363-32.537-31.975-43.392-49.127-53.376-61.952-4.327-5.581 1.408-7.296 3.968-8.627 12.877-6.553 21.888-12.647 33.561-24.115 11.673-11.443 17.894-20.301 24.55-32.973 1.331-2.534 3.097-8.166 8.755-3.891 13.056 9.805 30.489 20.48 63.001 52.454 65.561 64.435 245.043 280.909 225.203 300.467z" />
<glyph unicode="&#xe654;" d="M460.8 384h-25.6v-384h25.6c28.16 0 51.2 23.040 51.2 51.2v281.6c0 28.16-23.040 51.2-51.2 51.2zM0 332.8v-281.6c0-28.16 23.040-51.2 51.2-51.2h25.6v384h-25.6c-28.16 0-51.2-23.040-51.2-51.2zM343.040 437.581c-17.433 8.115-45.261 23.219-87.040 23.219s-69.606-15.104-87.040-23.219v-53.581h-56.32v-384h286.72v384h-56.32v53.581zM312.32 384h-112.64v34.176c13.645 5.888 33.229 11.904 56.32 11.904s42.649-5.99 56.32-11.878v-34.202z" />
<glyph unicode="&#xe655;" d="M256 177.177c61.184 0 112.409 20.787 115.507 47.949-9.088 25.523-19.021 53.35-28.774 80.717-6.759-19.507-44.16-33.28-86.733-33.28s-79.949 13.747-86.758 33.255c-9.754-27.366-19.635-55.168-28.749-80.717 3.097-27.136 54.298-47.923 115.507-47.923zM256 348.826c28.749 0 55.475 8.909 63.309 22.733-10.777 30.285-20.045 56.243-25.907 72.627-3.865 10.931-21.504 16.615-37.401 16.615s-33.536-5.683-37.401-16.589c-5.863-16.384-15.104-42.368-25.907-72.627 7.833-13.849 34.56-22.758 63.309-22.758zM480.768 151.91l-96.128 38.733 11.085-30.899c-0.563-32.717-64.128-58.829-139.725-58.829s-139.161 26.112-139.699 58.829l11.059 30.899-96.128-38.733c-26.957-10.88-28.083-30.976-2.535-44.672l180.787-96.947c25.575-13.696 67.43-13.696 93.005 0l180.787 96.947c25.6 13.696 24.448 33.792-2.509 44.672z" />
<glyph unicode="&#xe656;" d="M256 476.185c-135.526 0-245.76-110.285-245.76-245.785 0-135.527 110.234-245.786 245.76-245.786s245.76 110.259 245.76 245.786c0 135.501-110.233 245.785-245.76 245.785zM465.613 230.4c0-47.949-16.281-92.186-43.418-127.514-7.68 6.016-15.821 22.221-8.141 39.014 7.731 16.896 9.753 56.013 7.987 71.219-1.69 15.207-9.6 51.866-31.104 52.224-21.427 0.333-36.147 7.399-48.896 32.845-26.445 52.915 49.639 63.104 23.194 92.416-7.399 8.218-45.645-33.894-51.251 22.221-0.384 4.019 3.456 10.035 8.576 16.256 83.046-27.904 143.053-106.393 143.053-198.681zM227.2 437.913c-4.992-9.728-18.227-13.721-26.291-21.069-17.485-15.821-25.011-13.645-34.458-28.851-9.472-15.207-40.090-37.095-40.090-48.103 0-10.983 15.462-23.987 23.194-21.453 7.731 2.56 28.109 2.407 40.089-1.792 12.006-4.25 100.224-8.474 72.089-83.047-8.909-23.706-47.923-19.712-58.317-58.983-1.561-5.76-6.938-30.361-7.322-38.4-0.614-12.442 8.806-59.341-3.2-59.341-12.058 0-44.467 41.959-44.467 49.562s-8.423 34.279-8.423 57.088-38.835 22.451-38.835 52.787c0 27.392 21.069 41.011 16.333 54.093-4.659 13.056-41.651 13.517-57.063 15.104 26.931 69.939 90.343 121.856 166.758 132.403zM190.080 31.488c12.595 6.63 13.875 15.232 25.293 15.693 13.056 0.563 23.68 5.094 38.374 8.32 13.082 2.841 36.429 16.103 57.037 17.792 17.331 1.433 51.584-0.896 60.8-17.639-33.178-22.016-72.909-34.867-115.584-34.867-23.040 0-45.184 3.789-65.92 10.701z" />
<glyph unicode="&#xe657;" d="M476.16 384h-440.32c-19.712 0-35.84-16.128-35.84-35.84v-235.546c0-19.687 16.128-35.815 35.84-35.815h440.32c19.738 0 35.84 16.128 35.84 35.815v235.546c0 19.712-16.128 35.84-35.84 35.84zM281.6 332.8h51.2v-51.2h-51.2v51.2zM358.4 256v-51.2h-51.2v51.2h51.2zM204.8 332.8h51.2v-51.2h-51.2v51.2zM281.6 256v-51.2h-51.2v51.2h51.2zM128 332.8h51.2v-51.2h-51.2v51.2zM204.8 256v-51.2h-51.2v51.2h51.2zM51.2 332.8h51.2v-51.2h-51.2v51.2zM128 256v-51.2h-51.2v51.2h51.2zM102.4 128h-51.2v51.2h51.2v-51.2zM384 128h-256v51.2h256v-51.2zM460.8 128h-51.2v51.2h51.2v-51.2zM384 204.8v51.2h51.2v-51.2h-51.2zM460.8 281.6h-102.4v51.2h102.4v-51.2z" />
<glyph unicode="&#xe658;" d="M460.8 435.2h-409.6c-28.16 0-51.2-23.040-51.2-51.2v-307.2c0-28.185 23.040-51.2 51.2-51.2h409.6c28.16 0 51.2 23.014 51.2 51.2v307.2c0 28.16-23.040 51.2-51.2 51.2zM117.76 387.328c10.624 0 19.2-8.346 19.2-18.662 0-10.343-8.576-18.688-19.2-18.688s-19.2 8.345-19.2 18.662c0 10.343 8.602 18.688 19.2 18.688zM47.36 368.64c0 10.317 8.576 18.663 19.2 18.663s19.2-8.32 19.2-18.663c0-10.342-8.576-18.688-19.2-18.688s-19.2 8.371-19.2 18.688zM461.312 76.8h-410.624v235.52h410.624v-235.52zM461.312 353.28h-307.712v30.72h307.712v-30.72z" />
<glyph unicode="&#xe659;" d="M460.8 460.8h-409.6c-28.16 0-51.2-23.040-51.2-51.2v-307.2c0-28.16 23.040-50.688 51.2-50.688h101.888v50.176h-102.4v236.032h410.624v-236.032h-102.4v-50.202h101.888c28.185 0 51.2 22.553 51.2 50.688v307.226c0 28.16-23.014 51.2-51.2 51.2zM66.585 375.552c-10.624 0-19.2 8.371-19.2 18.688s8.576 18.688 19.2 18.688c10.599 0 19.2-8.371 19.2-18.688s-8.602-18.688-19.2-18.688zM117.785 375.552c-10.624 0-19.2 8.371-19.2 18.688s8.576 18.688 19.2 18.688c10.598 0 19.2-8.371 19.2-18.688s-8.601-18.688-19.2-18.688zM461.337 378.368h-308.25v31.744h308.224v-31.744zM254.669 277.145l-124.211-123.443h76.8v-153.702h94.822v153.702h76.8l-124.211 123.443z" />
<glyph unicode="&#xe65a;" d="M460.8 358.4h-409.6c-28.16 0-51.2-23.040-51.2-51.2v-153.6c0-28.16 23.040-51.2 51.2-51.2h409.6c28.185 0 51.2 23.040 51.2 51.2v153.6c0 28.16-23.014 51.2-51.2 51.2zM460.8 153.6h-409.6v153.6h409.6v-153.6zM435.2 281.088h-102.4v-101.351h102.4v101.351zM307.2 281.088h-102.4v-101.351h102.4v101.351zM179.2 281.088h-102.4v-101.351h102.4v101.351z" />
<glyph unicode="&#xe65b;" d="M460.8 358.4h-409.6c-28.16 0-51.2-23.040-51.2-51.2v-153.6c0-28.16 23.040-51.2 51.2-51.2h409.6c28.185 0 51.2 23.040 51.2 51.2v153.6c0 28.16-23.014 51.2-51.2 51.2zM460.8 153.6h-409.6v153.6h409.6v-153.6zM307.2 281.088h-102.4v-101.351h102.4v101.351zM179.2 281.088h-102.4v-101.351h102.4v101.351z" />
<glyph unicode="&#xe65c;" d="M460.8 358.4h-409.6c-28.16 0-51.2-23.040-51.2-51.2v-153.6c0-28.16 23.040-51.2 51.2-51.2h409.6c28.185 0 51.2 23.040 51.2 51.2v153.6c0 28.16-23.014 51.2-51.2 51.2zM460.8 153.6h-409.6v153.6h409.6v-153.6zM179.2 281.088h-102.4v-101.351h102.4v101.351z" />
<glyph unicode="&#xe65d;" d="M460.8 358.4h-409.6c-28.16 0-51.2-23.040-51.2-51.2v-153.6c0-28.16 23.040-51.2 51.2-51.2h409.6c28.16 0 51.2 23.040 51.2 51.2v153.6c0 28.16-23.040 51.2-51.2 51.2zM460.8 153.6h-409.6v153.6h409.6v-153.6z" />
<glyph unicode="&#xe65e;" d="M256 312.32c-45.415 0-81.92-36.48-81.92-81.92s36.48-81.92 81.92-81.92 81.92 36.48 81.92 81.92-36.505 81.92-81.92 81.92zM256 177.894c-29.005 0-52.48 23.501-52.48 52.48 0 29.005 23.475 52.48 52.48 52.48s52.48-23.475 52.48-52.48c0-28.979-23.475-52.48-52.48-52.48zM102.4 250.88c-14.131 0-25.6-9.165-25.6-20.48s11.469-20.48 25.6-20.48 25.088 9.165 25.088 20.48-10.957 20.48-25.088 20.48zM381.619 356.019c-7.987 7.987-22.579 6.375-32.563-3.61-10.010-10.010-11.623-24.576-3.635-32.589s22.579-6.375 32.563 3.609c10.010 9.984 11.648 24.576 3.635 32.589zM409.6 250.88c-14.157 0-25.088-9.165-25.088-20.48s10.957-20.48 25.088-20.48 25.6 9.165 25.6 20.48-11.443 20.48-25.6 20.48zM256 102.4c-11.29 0-20.48-11.469-20.48-25.6 0-14.157 9.165-25.6 20.48-25.6s20.48 11.443 20.48 25.6c0 14.131-9.19 25.6-20.48 25.6zM133.99 134.809c-9.984-10.010-11.623-24.601-3.635-32.589s22.605-6.349 32.589 3.635c10.010 10.010 11.623 24.601 3.635 32.589-7.987 7.962-22.579 6.349-32.589-3.635zM129.101 354.739c-8.013-8.013-6.374-22.579 3.635-32.589 10.010-9.984 24.576-11.622 32.589-3.609s6.375 22.579-3.635 32.563c-9.984 10.010-24.601 11.622-32.589 3.635zM350.336 107.111c10.010-9.984 24.576-11.597 32.563-3.61s6.375 22.579-3.61 32.563c-10.010 10.010-24.601 11.623-32.589 3.635s-6.375-22.605 3.635-32.589zM256 358.4c11.289 0 20.48 11.469 20.48 25.6s-9.19 25.6-20.48 25.6-20.48-11.469-20.48-25.6 9.191-25.6 20.48-25.6z" />
<glyph unicode="&#xe65f;" d="M486.4 250.88c-4.659 0-20.454 0-25.088 0-14.131 0-25.6-9.165-25.6-20.48s11.469-20.48 25.6-20.48c4.659 0 20.454 0 25.088 0 14.157 0 25.6 9.165 25.6 20.48s-11.443 20.48-25.6 20.48zM256 371.2c-78.080 0-140.8-62.72-140.8-140.8 0-78.106 62.72-140.8 140.8-140.8 78.106 0 140.8 62.695 140.8 140.8 0 78.080-62.695 140.8-140.8 140.8zM256 128c-56.576 0-102.4 45.824-102.4 102.4 0 56.55 45.824 102.4 102.4 102.4s102.4-45.85 102.4-102.4c0-56.576-45.824-102.4-102.4-102.4zM76.263 230.4c0 11.315-10.931 20.48-25.063 20.48-4.736 0-20.89 0-25.6 0-14.131 0-25.6-9.165-25.6-20.48s11.469-20.48 25.6-20.48c4.71 0 20.864 0 25.6 0 14.131 0 25.063 9.165 25.063 20.48zM256 409.6c11.289 0 20.48 11.469 20.48 25.6 0 4.685 0 20.915 0 25.6 0 14.131-9.165 25.6-20.48 25.6s-20.48-11.469-20.48-25.6c0-4.685 0-20.915 0-25.6 0-14.131 9.191-25.6 20.48-25.6zM256 51.2c-11.29 0-20.48-11.469-20.48-25.6 0-4.685 0-20.915 0-25.6 0-14.157 9.165-25.6 20.48-25.6s20.48 11.443 20.48 25.6c0 4.685 0 20.915 0 25.6 0 14.131-9.19 25.6-20.48 25.6zM444.544 389.99c10.010 10.010 11.623 24.601 3.635 32.589s-22.579 6.375-32.563-3.635c-2.739-2.765-15.155-15.155-17.92-17.92-10.010-10.010-11.623-24.576-3.635-32.563s22.605-6.4 32.589 3.61c2.739 2.765 15.155 15.155 17.894 17.92zM85.35 88.729c-2.765-2.765-15.155-15.181-17.92-17.92-9.984-10.010-11.597-24.576-3.609-32.563s22.579-6.375 32.563 3.61c2.765 2.739 15.181 15.155 17.92 17.92 10.010 10.010 11.623 24.576 3.609 32.563s-22.579 6.349-32.563-3.61zM96.409 418.969c-10.010 9.984-24.576 11.623-32.589 3.61s-6.374-22.579 3.609-32.589c2.765-2.765 15.155-15.155 17.92-17.92 10.010-9.984 24.576-11.623 32.563-3.609s6.4 22.579-3.609 32.563c-2.739 2.765-15.129 15.181-17.895 17.945zM397.671 59.75c2.765-2.765 15.181-15.181 17.92-17.92 10.010-9.984 24.601-11.597 32.589-3.61s6.349 22.579-3.635 32.563c-2.765 2.739-15.181 15.155-17.92 17.92-10.010 9.984-24.601 11.597-32.589 3.61s-6.323-22.553 3.635-32.563z" />
<glyph unicode="&#xe660;" d="M486.4 250.88c-4.659 0-20.454 0-25.088 0-14.131 0-25.6-9.165-25.6-20.48s11.469-20.48 25.6-20.48c4.659 0 20.454 0 25.088 0 14.157 0 25.6 9.165 25.6 20.48s-11.443 20.48-25.6 20.48zM256 371.2c-78.080 0-140.8-62.72-140.8-140.8 0-78.106 62.72-140.8 140.8-140.8s140.8 62.695 140.8 140.8c0 78.080-62.72 140.8-140.8 140.8zM258.56 128c-59.136 0-104.96 45.824-104.96 102.4 0 56.55 45.824 102.4 104.96 102.4v-204.8zM76.263 230.4c0 11.315-10.931 20.48-25.063 20.48-4.736 0-20.89 0-25.6 0-14.131 0-25.6-9.165-25.6-20.48s11.469-20.48 25.6-20.48c4.71 0 20.864 0 25.6 0 14.131 0 25.063 9.165 25.063 20.48zM256 409.6c11.289 0 20.48 11.469 20.48 25.6 0 4.685 0 20.915 0 25.6 0 14.131-9.165 25.6-20.48 25.6s-20.48-11.469-20.48-25.6c0-4.685 0-20.915 0-25.6 0-14.131 9.191-25.6 20.48-25.6zM256 51.2c-11.29 0-20.48-11.469-20.48-25.6 0-4.685 0-20.915 0-25.6 0-14.157 9.165-25.6 20.48-25.6s20.48 11.443 20.48 25.6c0 4.685 0 20.915 0 25.6 0 14.131-9.19 25.6-20.48 25.6zM444.544 389.99c10.010 10.010 11.623 24.601 3.635 32.589s-22.579 6.375-32.563-3.635c-2.739-2.765-15.155-15.155-17.92-17.92-10.010-10.010-11.623-24.576-3.635-32.563s22.605-6.4 32.589 3.61c2.739 2.765 15.155 15.155 17.894 17.92zM85.35 88.729c-2.765-2.765-15.155-15.181-17.92-17.92-9.984-10.010-11.597-24.576-3.609-32.563s22.579-6.375 32.563 3.61c2.765 2.739 15.181 15.155 17.92 17.92 10.010 10.010 11.623 24.576 3.609 32.563s-22.579 6.349-32.563-3.61zM96.409 418.969c-10.010 9.984-24.576 11.623-32.589 3.61s-6.374-22.579 3.609-32.589c2.765-2.765 15.155-15.155 17.92-17.92 10.010-9.984 24.576-11.623 32.563-3.609s6.4 22.579-3.609 32.563c-2.739 2.765-15.129 15.181-17.895 17.945zM397.671 59.75c2.765-2.765 15.181-15.181 17.92-17.92 10.010-9.984 24.601-11.597 32.563-3.61 7.987 7.987 6.375 22.579-3.61 32.563-2.765 2.739-15.181 15.155-17.92 17.92-10.010 9.984-24.601 11.597-32.589 3.61s-6.323-22.553 3.635-32.563z" />
<glyph unicode="&#xe661;" d="M194.867 377.395c-9.395 8.832-22.093 8.832-31.513 0l-163.353-146.995 163.353-146.97c9.421-8.858 22.119-8.858 31.513 0s9.395 23.193 0 32.051l-126.823 114.919 126.848 114.893c9.369 8.858 9.369 23.219-0.025 32.103zM348.647 377.395c-9.421 8.832-22.093 8.832-31.514 0-9.395-8.883-8.909-23.219 0.538-32.077l126.285-114.918-126.31-114.919c-9.421-8.858-9.933-23.193-0.538-32.051 9.421-8.858 22.093-8.858 31.514 0l163.379 146.97-163.353 146.995z" />
<glyph unicode="&#xe662;" d="M460.8 455.68h-409.6c-28.16 0-51.2-23.040-51.2-51.2v-281.6c0-28.16 22.579-55.731 50.202-61.261l111.923-22.375c0 0-96.333-34.125-34.125-34.125h256c62.208 0-34.125 34.125-34.125 34.125l111.923 22.375c27.597 5.529 50.202 33.101 50.202 61.261v281.6c0 28.16-23.040 51.2-51.2 51.2zM460.8 125.44h-409.6v284.16h409.6v-284.16z" />
<glyph unicode="&#xe663;" d="M407.091 343.040c-53.222 0-111.539-29.645-151.091-74.624-39.552 44.979-97.894 74.624-151.117 74.624-50.714 0-104.883-29.593-104.883-112.64s54.169-112.615 104.883-112.64v0c53.248 0 111.565 29.645 151.117 74.624 39.552-44.979 97.869-74.624 151.091-74.624 50.739 0 104.909 29.594 104.909 112.64s-54.169 112.64-104.909 112.64zM104.883 162.816c-38.707 0-58.343 22.733-58.343 67.584s19.635 67.609 58.343 67.609c42.803 0 92.519-27.802 123.033-67.609-30.515-39.808-80.205-67.584-123.034-67.584zM407.091 162.816c-42.803 0-92.519 27.776-123.034 67.584 30.49 39.808 80.231 67.609 123.034 67.609 38.733 0 58.342-22.759 58.342-67.609s-19.61-67.584-58.342-67.584z" />
<glyph unicode="&#xe664;" d="M183.936-4.352c20.198-13.056 43.597-21.888 72.064-21.197 28.467-0.691 51.84 8.141 72.038 21.197v52.992h-144.102v-52.992zM325.017 79.385c0 111.514 118.553 147.2 109.671 258.279-5.581 70.093-53.069 148.736-178.688 148.736s-173.107-78.643-178.688-148.736c-8.883-111.104 109.645-146.765 109.645-258.279h138.061zM131.533 333.619c5.325 66.534 50.585 100.275 124.467 100.275s119.142-33.741 124.442-100.275c2.893-36.429-18.048-60.723-46.336-100.506-20.813-29.338-45.44-63.975-56.96-109.082h-42.317c-11.52 45.107-36.121 79.719-56.986 109.082-28.262 39.808-49.203 64.077-46.31 100.506z" />
<glyph unicode="&#xe665;" d="M460.8 409.6h-409.6c-28.16 0-51.2-23.040-51.2-51.2v-256c0-28.16 23.040-51.2 51.2-51.2h409.6c28.16 0 51.2 23.040 51.2 51.2v256c0 28.16-23.040 51.2-51.2 51.2zM460.8 102.4h-409.6v153.6h409.6v-153.6zM460.8 332.8h-409.6v25.6h409.6v-25.6zM102.4 202.24v-15.36h15.36v15.36h-15.36zM194.56 171.52v-15.36h30.72v15.36h15.36v15.36h15.36v15.36h-30.72v-15.36h-15.36v-15.36h-15.36zM256 156.16v15.36h-15.36v-15.36h15.36zM179.2 156.16v15.36h-30.72v-15.36h30.72zM194.56 186.88h15.36v15.36h-30.72v-30.72h15.36v15.36zM133.12 171.52h15.36v15.36h15.36v15.36h-30.72v-15.36h-15.36v-15.36h-15.36v-15.36h30.72v15.36z" />
<glyph unicode="&#xe666;" d="M428.211 157.696c-21.606-34.918-90.496-60.442-172.211-60.442-81.664 0-150.605 25.523-172.185 60.442-4.582 7.399-7.014 3.43-7.014-0.231 0-3.687 0-51.251 0-51.251 0-49.639 80.231-101.094 179.2-101.094s179.2 51.456 179.2 101.094c0 0 0 47.565 0 51.251 0 3.661-2.457 7.629-6.989 0.231zM428.467 288.64c-21.223-30.873-90.419-53.504-172.467-53.504s-151.245 22.631-172.467 53.504c-4.403 6.375-6.733 2.918-6.733 0.026s0-60.314 0-60.314c0-45.133 80.231-81.69 179.2-81.69s179.2 36.557 179.2 81.69c0 0 0 57.421 0 60.314s-2.355 6.349-6.733-0.026zM256 455.68c-98.969 0-179.2-30.157-179.2-67.379v-32.23c0-39.475 80.231-71.475 179.2-71.475s179.2 32 179.2 71.475v32.205c0 37.248-80.231 67.405-179.2 67.405z" />
<glyph unicode="&#xe667;" d="M394.24 337.894c-65.049 0-117.786-52.736-117.786-117.76 0-24.704 7.629-47.616 20.634-66.56h-82.176c12.979 18.944 20.608 41.882 20.608 66.586 0 65.024-52.736 117.76-117.76 117.76s-117.76-52.736-117.76-117.76 52.736-117.76 117.76-117.76h276.48c65.024 0 117.76 52.736 117.76 117.76s-52.736 117.735-117.76 117.735zM51.2 220.16c0 36.762 29.799 66.56 66.56 66.56s66.56-29.798 66.56-66.56c0-36.787-29.798-66.56-66.56-66.56s-66.56 29.773-66.56 66.56zM394.24 153.6c-36.787 0-66.586 29.773-66.586 66.56 0 36.762 29.798 66.56 66.586 66.56 36.762 0 66.56-29.798 66.56-66.56 0-36.787-29.798-66.56-66.56-66.56z" />
<glyph unicode="&#xe668;" d="M399.36 435.2l-30.72-76.8h-225.28l-30.72 76.8c-19.712 0-35.84-16.128-35.84-35.84v-389.12c0-19.712 16.128-35.84 35.84-35.84h286.72c19.738 0 35.84 16.128 35.84 35.84v389.12c0 19.712-16.128 35.84-35.84 35.84zM348.16 384l23.040 51.2h-55.808l-18.432 51.2h-81.92l-18.432-51.2h-55.808l23.040-51.2h184.32z" />
<glyph unicode="&#xe669;" d="M102.4 51.2c0-28.262 22.938-51.2 51.2-51.2 28.288 0 51.2 22.938 51.2 51.2s-22.912 51.2-51.2 51.2c-28.263 0-51.2-22.938-51.2-51.2zM358.4 51.2c0-28.262 22.938-51.2 51.2-51.2 28.288 0 51.2 22.938 51.2 51.2s-22.912 51.2-51.2 51.2c-28.262 0-51.2-22.938-51.2-51.2zM193.203 172.237l283.366 80.947c5.401 1.561 9.831 7.424 9.831 13.056v140.8h-360.96v43.52c0 5.632-4.582 10.24-10.24 10.24h-79.36c-5.632 0-10.24-4.608-10.24-10.24v-40.96h49.741l50.381-231.859 4.864-24.141v-38.4c0-5.632 4.608-10.24 10.214-10.24h335.386c5.606 0 10.214 4.608 10.214 10.24v38.4h-287.949c-29.415 0-30.029 11.52-5.248 18.637z" />
<glyph unicode="&#xe66a;" d="M471.040 435.2h-430.080c-8.474 0-15.36-6.887-15.36-15.36v-61.44h460.8v61.44c0 8.474-6.887 15.36-15.36 15.36zM51.2 61.44c0-19.712 16.128-35.84 35.84-35.84h337.92c19.738 0 35.84 16.128 35.84 35.84v271.36h-409.6v-271.36zM179.2 281.6h153.6v-51.2h-153.6v51.2z" />
<glyph unicode="&#xe66b;" d="M125.594 190.925l90.931-90.931 166.835 166.835-90.957 90.931-166.81-166.835zM489.088 315.802l-38.707 38.681c-7.399-3.993-15.795-6.298-24.806-6.298-28.595 0-51.789 23.194-51.789 51.815 0 8.986 2.253 17.433 6.298 24.806l-38.707 38.682c-10.112 10.087-26.547 10.087-36.659 0l-281.805-281.83c-10.086-10.087-10.086-26.573 0-36.659l38.707-38.707c7.373 4.019 15.821 6.298 24.781 6.298 28.621 0 51.815-23.168 51.815-51.789 0-8.986-2.279-17.433-6.323-24.807l38.681-38.707c10.087-10.087 26.573-10.087 36.659 0l281.856 281.856c10.061 10.087 10.061 26.573 0 36.659zM216.525 58.393l-132.506 132.531 208.435 208.41 132.506-132.506-208.435-208.435z" />
<glyph unicode="&#xe66c;" d="M51.251 414.745v-60.621c181.401 0 328.448-147.072 328.448-328.474h60.647c0 214.887-174.208 389.095-389.094 389.095zM51.251 293.478v-60.647c114.432 0 207.206-92.749 207.206-207.181h60.595c0 147.891-119.885 267.827-267.801 267.827zM109.363 141.875c-32.077 0-58.112-26.035-58.112-58.137s26.035-58.112 58.112-58.112c32.102 0 58.137 26.010 58.137 58.112s-26.035 58.137-58.138 58.137z" />
<glyph unicode="&#xe66d;" d="M256 128c-28.006 0-50.662-22.938-50.662-51.2s22.656-51.2 50.662-51.2c27.981 0 50.663 22.938 50.663 51.2s-22.682 51.2-50.663 51.2zM148.48 185.395l35.84-36.199c39.577 39.987 103.757 39.987 143.36 0l35.84 36.199c-59.392 60.007-155.673 60.007-215.040 0zM76.8 257.817l35.814-36.199c79.181 79.975 207.539 79.975 286.72 0l35.865 36.199c-98.969 99.968-259.43 99.968-358.4 0zM5.12 330.215l35.84-36.199c118.784 119.962 311.322 119.962 430.080 0l35.84 36.199c-138.547 139.981-363.213 139.981-501.76 0z" />
<glyph unicode="&#xe66e;" d="M322.586 233.805v226.995c0 14.131-11.469 25.6-25.6 25.6h-87.065c-14.157 0-20.48-11.469-20.48-25.6v-226.995c-42.727-23.526-71.68-68.967-71.68-121.165 0-76.339 61.901-138.24 138.24-138.24s138.24 61.901 138.24 138.24c0 52.199-28.954 97.639-71.654 121.165zM256 25.6c-48.077 0-87.040 38.963-87.040 87.040 0 39.783 26.726 73.216 63.181 83.635v187.725h51.2v-188.749c34.663-11.469 59.725-44.109 59.725-82.611-0.026-48.077-38.989-87.040-87.065-87.040z" />
<glyph unicode="&#xe66f;" d="M101.248 484.019c-0.384 3.174-5.632 3.174-5.99 0-13.082-105.344-79.897-127.053-79.897-200.269 0-45.235 37.939-81.894 82.893-81.894s82.893 36.659 82.893 81.894c0 73.216-66.816 94.925-79.897 200.269zM416.743 484.019c-0.409 3.174-5.606 3.174-5.99 0-13.082-105.344-79.897-127.053-79.897-200.269 0-45.235 37.939-81.894 82.893-81.894s82.893 36.659 82.893 81.894c0 73.216-66.816 94.925-79.897 200.269zM253.005 256.563c-13.082-105.344-79.897-127.027-79.897-200.243 0-45.261 37.939-81.92 82.893-81.92s82.893 36.685 82.893 81.92c0 73.19-66.816 94.899-79.897 200.243-0.384 3.2-5.607 3.2-5.99 0z" />
<glyph unicode="&#xe670;" d="M460.8 384h-230.4v-128h256v102.4c0 14.131-11.443 25.6-25.6 25.6zM25.6 102.4c0-14.157 6.349-25.6 20.48-25.6h133.12v128h-153.6v-102.4zM230.4 76.8h230.4c14.157 0 25.6 11.443 25.6 25.6v102.4h-256v-128zM25.6 358.4v-102.4h153.6v128h-133.12c-14.131 0-20.48-11.469-20.48-25.6z" />
<glyph unicode="&#xe671;" d="M17.664 196.301l34.893-8.653 26.266 41.267-49.92 12.365c-12.493 3.123-25.113-4.454-28.211-16.896-3.098-12.391 4.505-24.986 16.973-28.083zM473.113 189.645l-114.253-102.861-134.349 103.962c-2.56 1.997-5.504 3.405-8.653 4.199l-17.894 4.403-26.266-41.242 28.135-6.938 145.869-112.845c4.224-3.303 9.241-4.889 14.285-4.889 5.606 0 11.213 1.997 15.616 5.99l128.691 115.84c9.549 8.601 10.265 23.245 1.664 32.743-8.576 9.498-23.296 10.24-32.845 1.639zM222.31 302.567l125.107-80.103c10.547-6.733 24.576-3.942 31.719 6.323l128.717 185.395c7.296 10.547 4.659 24.96-5.913 32.256s-25.063 4.634-32.384-5.888l-115.917-166.963-125.875 80.589c-5.197 3.328-11.52 4.454-17.587 3.123s-11.315-4.992-14.618-10.214l-191.923-301.287c-6.912-10.803-3.687-25.088 7.168-31.949 3.866-2.457 8.192-3.61 12.467-3.61 7.706 0 15.232 3.789 19.661 10.752l179.379 281.575z" />
<glyph unicode="&#xe672;" d="M229.53 430.131c-98.662-11.725-176.845-89.933-188.57-188.569h188.57v188.569zM283.469 429.747v-216.448c0-14.183-11.495-25.677-25.702-25.677h-216.448c13.849-105.856 104.269-187.597 213.863-187.597 119.194 0 215.859 96.615 215.859 215.859 0 109.594-81.741 200.013-187.571 213.863z" />
<glyph unicode="&#xe673;" d="M435.2 460.8h-56.32c-14.131 0-20.48-11.469-20.48-25.6v-435.2h102.4v435.2c0 14.131-11.443 25.6-25.6 25.6zM281.6 307.2h-56.32c-14.131 0-20.48-11.469-20.48-25.6v-281.6h102.4v281.6c0 14.131-11.443 25.6-25.6 25.6zM128 153.6h-56.32c-14.131 0-20.48-11.443-20.48-25.6v-128h102.4v128c0 14.157-11.469 25.6-25.6 25.6z" />
<glyph unicode="&#xe674;" d="M498.893 425.293l-118.502-193.049c-4.403-7.142-13.005-8.32-19.149-2.586l-57.293 53.657c-6.144 5.734-14.95 4.71-19.61-2.304l-80.461-121.344c-4.633-6.989-13.517-8.089-19.738-2.457l-37.453 34.202c-6.221 5.658-15.59 4.915-20.838-1.613l-117.99-147.149c-5.274-6.579-2.688-11.93 5.683-11.93h493.337v392.32c0.026 8.423-3.584 9.447-7.987 2.253z" />
<glyph unicode="&#xe675;" d="M404.505 281.549h-46.106v35.84c0 74.163-34.151 117.76-102.4 117.76-68.224 0-102.4-43.597-102.4-117.76v-35.84h-51.2c-14.131 0-25.6-16.563-25.6-30.72v-199.68c0-14.080 10.983-29.159 24.371-33.459l30.617-9.907c13.389-4.327 35.865-7.859 49.971-7.859h148.48c14.080 0 36.582 3.533 49.971 7.859l30.618 9.907c13.414 4.301 24.371 19.379 24.371 33.459v199.68c0 14.157-16.563 30.72-30.695 30.72zM204.8 327.629c0 36.992 20.429 56.32 51.2 56.32 30.797 0 51.2-19.328 51.2-56.32v-46.080h-102.4v46.080z" />
<glyph unicode="&#xe676;" d="M404.48 281.6h-46.080v61.44c0 74.163-34.176 117.76-102.4 117.76-68.25 0-102.4-43.597-102.4-117.76v-10.24h51.2v20.48c0 36.992 20.403 56.32 51.2 56.32 30.771 0 51.2-19.328 51.2-56.32v-71.68h-204.8c-14.157 0-25.6-16.563-25.6-30.72v-199.68c0-14.080 10.983-29.133 24.371-33.459l30.617-9.907c13.415-4.301 35.891-7.834 49.971-7.834h148.48c14.106 0 36.582 3.533 49.971 7.859l30.618 9.907c13.389 4.301 24.371 19.353 24.371 33.433v199.68c0 14.157-16.563 30.72-30.72 30.72z" />
<glyph unicode="&#xe677;" d="M282.137 51.2h-205.85v358.4h205.824v-76.8h50.688v76.8c0 28.16-23.014 51.2-51.2 51.2h-204.8c-28.16 0-51.2-23.040-51.2-51.2v-358.4c0-28.16 23.040-51.2 51.2-51.2h204.8c28.185 0 51.2 23.040 51.2 51.2v51.2h-50.663v-51.2zM486.4 217.6l-101.863 99.84v-61.44h-230.4v-76.8h230.4v-61.44l101.863 99.84z" />
<glyph unicode="&#xe678;" d="M435.2 460.8h-230.4c-28.16 0-50.688-23.040-50.688-51.2v-76.8h50.688v76.8h230.4v-358.4h-230.4v51.2h-50.688v-51.2c0-28.16 22.528-51.2 50.688-51.2h230.4c28.16 0 51.2 23.040 51.2 51.2v358.4c0 28.16-23.040 51.2-51.2 51.2zM256 117.76l102.4 99.84-102.4 99.84v-61.44h-230.4v-76.8h230.4v-61.44z" />
<glyph unicode="&#xe679;" d="M212.352 51.2c-11.136 0-21.683 5.197-28.441 14.157l-91.495 120.781c-11.904 15.719-8.806 38.093 6.912 49.997 15.744 11.929 38.093 8.806 49.997-6.912l60.185-79.463 151.347 242.97c10.419 16.717 32.435 21.837 49.178 11.418 16.717-10.394 21.837-32.435 11.392-49.152l-178.765-286.976c-6.221-10.010-16.947-16.281-28.697-16.793-0.537-0.026-1.075-0.026-1.613-0.026z" />
<glyph unicode="&#xe67a;" d="M367.334 149.709l-70.605 80.691 70.605 80.691c12.007 12.007 12.007 31.463 0 43.443s-31.462 11.981-43.443 0l-67.891-77.593-67.865 77.568c-12.006 12.006-31.463 12.006-43.443 0s-11.981-31.463 0-43.443l70.579-80.666-70.605-80.691c-11.981-12.007-11.981-31.411 0-43.392 12.006-12.007 31.463-12.007 43.443 0l67.891 77.543 67.865-77.543c12.007-12.007 31.462-12.007 43.443 0s12.007 31.385 0.026 43.392z" />
<glyph unicode="&#xe67b;" d="M409.6 435.2h-307.2c-28.16 0-51.2-23.040-51.2-51.2v-307.2c0-28.16 23.040-51.2 51.2-51.2h307.2c28.16 0 51.2 23.040 51.2 51.2v307.2c0 28.16-23.040 51.2-51.2 51.2zM384 204.8h-256v51.2h256v-51.2z" />
<glyph unicode="&#xe67c;" d="M409.6 435.2h-307.2c-28.16 0-51.2-23.040-51.2-51.2v-307.2c0-28.16 23.040-51.2 51.2-51.2h307.2c28.16 0 51.2 23.040 51.2 51.2v307.2c0 28.16-23.040 51.2-51.2 51.2zM384 204.8h-102.4v-102.4h-51.2v102.4h-102.4v51.2h102.4v102.4h51.2v-102.4h102.4v-51.2z" />
<glyph unicode="&#xe67d;" d="M409.6 435.2h-307.2c-28.16 0-51.2-23.040-51.2-51.2v-307.2c0-28.16 23.040-51.2 51.2-51.2h307.2c28.16 0 51.2 23.040 51.2 51.2v307.2c0 28.16-23.040 51.2-51.2 51.2zM334.361 107.801l-78.362 78.336-78.362-78.362-44.237 44.262 78.336 78.362-78.336 78.336 44.237 44.263 78.362-78.336 78.336 78.336 44.262-44.237-78.336-78.362 78.361-78.362-44.262-44.237z" />
<glyph unicode="&#xe67e;" d="M256 445.44c-118.784 0-215.040-96.307-215.040-215.040 0-118.784 96.281-215.040 215.040-215.040s215.040 96.281 215.040 215.040c0 118.758-96.281 215.040-215.040 215.040zM385.28 256.563v-52.352h-258.56v52.352h258.56z" />
<glyph unicode="&#xe67f;" d="M256 445.44c-118.784 0-215.040-96.307-215.040-215.040 0-118.784 96.281-215.040 215.040-215.040s215.040 96.281 215.040 215.040c0 118.758-96.281 215.040-215.040 215.040zM282.163 204.237v-103.091h-52.327v103.091h-103.117v52.327h103.091v103.117h52.352v-103.091h103.091v-52.352h-103.091z" />
<glyph unicode="&#xe680;" d="M256 445.44c-118.784 0-215.040-96.307-215.040-215.040 0-118.784 96.281-215.040 215.040-215.040s215.040 96.281 215.040 215.040c0 118.758-96.281 215.040-215.040 215.040zM300.262 230.4l78.362-78.362-44.262-44.262-78.362 78.362-78.362-78.361-44.237 44.262 78.336 78.362-78.336 78.336 44.237 44.262 78.362-78.336 78.361 78.336 44.262-44.237-78.362-78.362z" />
<glyph unicode="&#xe681;" d="M389.094 256h-266.214c-14.157 0-15.36-11.469-15.36-25.6s1.203-25.6 15.36-25.6h266.214c14.157 0 15.385 11.469 15.385 25.6s-1.229 25.6-15.385 25.6z" />
<glyph unicode="&#xe682;" d="M389.094 256h-107.52v107.52c0 14.131-11.443 15.36-25.6 15.36-14.131 0-25.6-1.203-25.6-15.36v-107.52h-107.495c-14.157 0-15.36-11.469-15.36-25.6s1.203-25.6 15.36-25.6h107.495v-107.52c0-14.131 11.469-15.36 25.6-15.36 14.157 0 25.6 1.229 25.6 15.36v107.52h107.52c14.157 0 15.385 11.469 15.385 25.6s-1.229 25.6-15.385 25.6z" />
<glyph unicode="&#xe683;" d="M460.8 409.6h-244.583c-11.264 0-27.417-6.067-35.891-13.491l-173.977-152.218c-8.473-7.424-8.473-19.559 0-26.983l173.977-152.243c8.474-7.399 24.627-13.466 35.891-13.466h244.583c28.185 0 51.2 23.040 51.2 51.2v256c0 28.16-23.014 51.2-51.2 51.2zM388.889 128l-65.459 65.459-65.408-65.459-36.966 36.941 65.433 65.459-65.433 65.434 36.966 36.966 65.433-65.433 65.433 65.433 36.941-36.966-65.408-65.434 65.433-65.434-36.966-36.966z" />
<glyph unicode="&#xe684;" d="M256 476.16c-135.731 0-245.76-110.029-245.76-245.76s110.029-245.76 245.76-245.76c135.757 0 245.76 110.029 245.76 245.76s-110.003 245.76-245.76 245.76zM388.25 362.599l-0.051 0.051c0-0.025 0.051-0.051 0.051-0.051zM69.017 230.4c0 103.27 83.712 186.982 186.983 186.982 44.903 0 86.118-15.821 118.375-42.189l-263.142-263.117c-26.394 32.231-42.215 73.421-42.215 118.323zM123.751 98.201l0.051-0.051c-0.025 0.026-0.025 0.026-0.051 0.051zM256 43.392c-44.903 0-86.093 15.846-118.323 42.214l263.065 263.117c26.394-32.231 42.24-73.421 42.24-118.323 0.026-103.271-83.738-187.008-186.983-187.008z" />
<glyph unicode="&#xe685;" d="M318.259 486.4c34.304 0 51.456-23.398 51.456-50.125 0-33.382-29.798-64.281-68.557-64.281-32.512 0-51.456 19.2-50.56 50.918 0 26.752 22.528 63.488 67.661 63.488zM212.71-25.6c-27.085 0-46.925 16.691-27.981 90.189l31.078 130.329c5.401 20.864 6.298 29.235 0 29.235-8.141 0-43.264-14.413-64.051-28.621l-13.517 22.553c65.869 55.962 141.619 88.755 174.106 88.755 27.059 0 31.539-32.563 18.048-82.662l-35.61-137.011c-6.298-24.217-3.61-32.563 2.688-32.563 8.141 0 34.739 10.061 60.903 30.925l15.36-20.864c-64.025-65.178-133.965-90.265-161.024-90.265z" />
<glyph unicode="&#xe686;" d="M252.851 465.894c-130.048-1.741-234.087-108.595-232.345-238.669 1.741-129.997 108.595-234.061 238.643-232.32s234.087 108.595 232.346 238.669c-1.715 130.022-108.595 234.061-238.643 232.32zM278.963 387.405c23.936 0 31.002-13.875 31.002-29.773 0-19.84-15.897-38.195-43.008-38.195-22.681 0-33.459 11.418-32.819 30.259 0 15.897 13.312 37.709 44.825 37.709zM217.575 83.2c-16.358 0-28.339 9.933-16.896 53.606l18.765 77.415c3.251 12.416 3.789 17.383 0 17.383-4.889 0-26.137-8.576-38.707-17.024l-8.166 13.389c39.808 33.229 85.581 52.736 105.19 52.736 16.358 0 19.072-19.354 10.906-49.127l-21.504-81.408c-3.789-14.387-2.151-19.353 1.639-19.353 4.889 0 20.992 5.939 36.813 18.381l9.241-12.416c-38.681-38.681-80.896-53.581-97.28-53.581z" />
<glyph unicode="&#xe687;" d="M360.704 429.209c-29.209 21.069-65.843 31.591-109.978 31.591-33.587 0-61.901-7.424-84.915-22.221-36.531-23.194-55.936-62.566-58.291-118.118h84.633c0 16.179 4.71 31.769 14.157 46.771s25.472 22.502 48.077 22.502c22.963 0 38.81-6.093 47.462-18.253 8.678-12.211 13.005-25.702 13.005-40.499 0-12.877-6.451-24.653-14.233-35.379-4.275-6.247-9.933-11.981-16.921-17.255 0 0-45.901-29.44-66.073-53.095-11.699-13.722-12.749-34.253-13.773-63.719-0.077-2.099 0.717-6.425 8.064-6.425s59.315 0 65.843 0 7.885 4.839 7.987 6.963c0.461 10.726 1.664 16.205 3.635 22.4 3.712 11.699 13.747 21.913 25.063 30.695l23.296 16.077c21.017 16.384 37.811 29.824 45.209 40.371 12.647 17.357 21.529 38.707 21.529 64.025 0 41.344-14.618 72.525-43.776 93.568zM249.369 104.345c-29.184 0.87-53.248-19.303-54.169-50.944-0.922-31.616 21.965-52.505 51.149-53.376 30.464-0.896 53.888 18.637 54.81 50.253 0.896 31.642-21.325 53.171-51.789 54.067z" />
<glyph unicode="&#xe688;" d="M252.877 465.894c-130.073-1.741-234.112-108.595-232.371-238.669 1.741-129.997 108.595-234.061 238.669-232.32 130.022 1.741 234.087 108.595 232.32 238.669-1.715 130.022-108.57 234.061-238.618 232.32zM252.185 87.040h-1.305c-20.019 0.589-34.15 15.36-33.587 35.097 0.563 19.379 15.027 33.485 34.406 33.485l1.178-0.026c20.582-0.615 34.56-15.232 33.945-35.533-0.563-19.43-14.822-33.024-34.637-33.024zM336.435 254.259c-4.736-6.681-15.079-15.001-28.135-25.165l-14.387-9.933c-7.885-6.144-12.647-11.904-14.413-17.562-1.433-4.505-2.099-5.658-2.227-14.745l-0.026-2.329h-54.861l0.154 4.659c0.666 19.098 1.152 30.31 9.063 39.603 12.416 14.566 39.808 32.205 40.96 32.947 3.917 2.969 7.219 6.323 9.702 9.907 5.76 7.936 8.294 14.208 8.294 20.327 0 8.525-2.534 16.41-7.526 23.424-4.813 6.784-13.952 10.214-27.161 10.214-13.107 0-22.067-4.173-27.443-12.697-5.555-8.781-8.32-17.971-8.32-27.392v-2.355h-56.576l0.102 2.457c1.459 34.663 13.824 59.597 36.761 74.163 14.387 9.293 32.307 13.978 53.197 13.978 27.366 0 50.509-6.656 68.685-19.763 18.432-13.287 27.776-33.203 27.776-59.162 0-14.541-4.582-28.185-13.619-40.576z" />
<glyph unicode="&#xe689;" d="M499.507 26.061l-228.045 400.154c-3.149 5.53-9.063 8.935-15.463 8.935s-12.288-3.405-15.463-8.935l-228.019-400.154c-3.098-5.427-3.046-12.058 0.128-17.433s9.011-8.678 15.309-8.678h456.064c6.247 0 12.109 3.303 15.309 8.678 3.175 5.376 3.226 12.007 0.179 17.433zM284.16 51.149h-56.32v51.2h56.32v-51.2zM284.16 140.749h-56.32v153.6h56.32v-153.6z" />
<glyph unicode="&#xe68a;" d="M141.209 122.265c-57.907 62.285-56.883 159.872 3.251 220.442 24.627 24.781 55.398 39.577 87.398 44.442l-1.767 53.171c-44.903-5.453-88.371-25.497-122.803-60.16-80.615-81.203-81.561-212.224-3.149-295.219l-44.569-44.877 141.056-7.705-0.384 149.351-59.034-59.443zM311.347 428.416l0.384-149.351 59.059 59.469c57.907-62.285 56.909-159.872-3.251-220.442-24.627-24.807-55.399-39.577-87.424-44.442l1.767-53.145c44.928 5.453 88.397 25.498 122.829 60.185 80.589 81.178 81.587 212.224 3.123 295.194l44.57 44.877-141.056 7.655z" />
<glyph unicode="&#xe68b;" d="M224.589 440.32c113.817 0 206.362-91.187 209.127-204.672h62.925l-94.183-104.986-94.183 104.986h73.113c-2.739 84.506-71.859 152.192-156.8 152.192-86.681 0-156.928-70.477-156.928-157.44s70.246-157.44 156.928-157.44c34.765 0 66.867 11.366 92.877 30.541l35.968-38.502c-35.507-27.878-80.231-44.519-128.845-44.519-115.558 0-209.229 93.978-209.229 209.92s93.671 209.92 209.229 209.92z" />
<glyph unicode="&#xe68c;" d="M287.385 440.32c-113.792 0-206.336-91.187-209.126-204.672h-62.899l94.183-104.96 94.157 104.96h-73.113c2.765 84.506 71.885 152.192 156.8 152.192 86.707 0 156.954-70.477 156.954-157.44s-70.246-157.44-156.953-157.44c-34.739 0-66.841 11.366-92.851 30.541l-35.993-38.502c35.507-27.878 80.231-44.519 128.845-44.519 115.584 0 209.28 93.978 209.28 209.92-0.026 115.942-93.721 209.92-209.28 209.92z" />
<glyph unicode="&#xe68d;" d="M386.381 315.034h18.099v-51.533l107.52 92.16-107.52 92.16v-61.107h-18.099c-94.541 0-147.865-70.067-194.918-131.891-42.317-55.603-78.848-103.629-137.881-103.629h-53.581v-71.706h53.581c94.566 0 147.865 70.093 194.944 131.917 42.291 55.629 78.822 103.629 137.856 103.629zM138.522 269.875c4.019 5.222 8.089 10.547 12.211 15.949 10.010 13.159 20.583 27.034 32.025 40.858-33.817 31.59-74.624 54.912-129.178 54.912h-53.581v-71.68h53.581c33.971 0 60.493-15.949 84.941-40.038zM404.48 146.099h-18.099c-36.019 0-63.642 17.894-89.344 44.493-2.586-3.353-5.146-6.759-7.757-10.189-11.289-14.797-23.45-30.745-36.839-46.49 34.739-33.894 76.826-59.495 133.939-59.495h18.099v-61.44l107.52 92.16-107.52 92.211v-51.251z" />
<glyph unicode="&#xe68e;" d="M409.651 327.68h-276.48v56.32l-107.52-92.16 107.52-92.16v56.32h256v-107.52h-332.8v-71.68h353.28c28.262 0 51.2 22.938 51.2 51.2v148.48c0 28.288-22.963 51.2-51.2 51.2z" />
<glyph unicode="&#xe68f;" d="M102.451 153.6h207.386v-76.8l122.88 112.64-122.88 112.615v-76.8h-186.88v158.746h-71.706v-179.2c0-28.262 22.912-51.2 51.2-51.2z" />
<glyph unicode="&#xe690;" d="M127.488 148.48v133.632h51.712l-89.6 101.888-89.6-101.888h51.712v-154.112c0-28.262 22.912-51.2 51.2-51.2h229.888l-65.587 71.68h-139.725zM460.262 178.688v154.112c0 28.262-22.938 51.2-51.2 51.2h-229.863l65.561-71.68h139.75v-133.632h-51.712l89.6-101.888 89.6 101.888h-51.738z" />
<glyph unicode="&#xe691;" d="M435.2 327.68h-97.28v-71.68h76.8v-107.52h-317.44v107.52h107.52v-56.32l102.4 92.16-102.4 92.16v-56.32h-128c-28.263 0-51.2-22.912-51.2-51.2v-148.48c0-28.262 22.938-51.2 51.2-51.2h358.4c28.288 0 51.2 22.938 51.2 51.2v148.48c0 28.288-22.912 51.2-51.2 51.2z" />
<glyph unicode="&#xe692;" d="M287.411 440.32c-113.817 0-206.362-91.187-209.126-204.672h-62.925l94.183-104.986 94.157 104.986h-73.113c2.765 84.506 71.885 152.192 156.826 152.192 86.682 0 156.928-70.477 156.928-157.44s-70.246-157.44-156.928-157.44c-34.765 0-66.867 11.366-92.877 30.541l-35.993-38.502c35.533-27.878 80.256-44.519 128.87-44.519 115.558 0 209.255 93.978 209.255 209.92-0.026 115.942-93.721 209.92-209.255 209.92zM268.8 343.040v-120.064l76.928-76.928 25.344 25.344-66.432 66.432v105.216h-35.84z" />
<glyph unicode="&#xe693;" d="M123.29 230.4h261.12v-122.88h71.68v143.36c0 28.288-22.938 51.2-51.2 51.2h-281.6v51.2l-102.4-87.040 102.4-81.92v46.080z" />
<glyph unicode="&#xe694;" d="M358.4 353.28h-256v51.2l-102.4-87.040 102.4-81.92v46.080h256v71.68zM512 138.24l-102.4 87.040v-51.2h-256v-71.68h256v-46.080l102.4 81.92z" />
<glyph unicode="&#xe695;" d="M128 153.6h-25.6c-14.131 0-25.6-11.443-25.6-25.6s11.469-25.6 25.6-25.6h25.6c14.131 0 25.6 11.443 25.6 25.6s-11.469 25.6-25.6 25.6zM128 256h-25.6c-14.131 0-25.6-11.469-25.6-25.6s11.469-25.6 25.6-25.6h25.6c14.131 0 25.6 11.469 25.6 25.6s-11.469 25.6-25.6 25.6zM128 358.4h-25.6c-14.131 0-25.6-11.469-25.6-25.6s11.469-25.6 25.6-25.6h25.6c14.131 0 25.6 11.469 25.6 25.6s-11.469 25.6-25.6 25.6zM230.4 307.2h179.2c14.157 0 25.6 11.469 25.6 25.6s-11.443 25.6-25.6 25.6h-179.2c-14.131 0-25.6-11.469-25.6-25.6s11.469-25.6 25.6-25.6zM409.6 256h-179.2c-14.131 0-25.6-11.469-25.6-25.6s11.469-25.6 25.6-25.6h179.2c14.157 0 25.6 11.469 25.6 25.6s-11.443 25.6-25.6 25.6zM409.6 153.6h-179.2c-14.131 0-25.6-11.443-25.6-25.6s11.469-25.6 25.6-25.6h179.2c14.157 0 25.6 11.443 25.6 25.6s-11.443 25.6-25.6 25.6z" />
<glyph unicode="&#xe696;" d="M179.2 256h-153.6c-14.131 0-25.6-11.469-25.6-25.6s11.469-25.6 25.6-25.6h153.6c14.131 0 25.6 11.469 25.6 25.6s-11.469 25.6-25.6 25.6zM179.2 153.6h-153.6c-14.131 0-25.6-11.443-25.6-25.6s11.469-25.6 25.6-25.6h153.6c14.131 0 25.6 11.443 25.6 25.6s-11.469 25.6-25.6 25.6zM496.64 256h-87.040v87.040c0 14.131-11.443 15.36-25.6 15.36s-25.6-1.229-25.6-15.36v-87.040h-84.48c-14.157 0-15.36-11.469-15.36-25.6s1.229-25.6 15.385-25.6h84.454v-87.040c0-14.131 11.443-15.36 25.6-15.36s25.6 1.229 25.6 15.36v87.040h87.040c14.131 0 15.36 11.469 15.36 25.6s-1.229 25.6-15.36 25.6zM179.2 358.4h-153.6c-14.131 0-25.6-11.469-25.6-25.6s11.469-25.6 25.6-25.6h153.6c14.131 0 25.6 11.469 25.6 25.6s-11.469 25.6-25.6 25.6z" />
<glyph unicode="&#xe697;" d="M189.44 384h-46.080c-28.16 0-40.96-12.8-40.96-40.96v-46.080c0-28.16 12.8-40.96 40.96-40.96h46.080c28.16 0 40.96 12.8 40.96 40.96v46.080c0 28.16-12.8 40.96-40.96 40.96zM368.64 384h-46.080c-28.16 0-40.96-12.8-40.96-40.96v-46.080c0-28.16 12.8-40.96 40.96-40.96h46.080c28.16 0 40.96 12.8 40.96 40.96v46.080c0 28.16-12.8 40.96-40.96 40.96zM189.44 204.8h-46.080c-28.16 0-40.96-12.8-40.96-40.96v-46.080c0-28.16 12.8-40.96 40.96-40.96h46.080c28.16 0 40.96 12.8 40.96 40.96v46.080c0 28.16-12.8 40.96-40.96 40.96zM368.64 204.8h-46.080c-28.16 0-40.96-12.8-40.96-40.96v-46.080c0-28.16 12.8-40.96 40.96-40.96h46.080c28.16 0 40.96 12.8 40.96 40.96v46.080c0 28.16-12.8 40.96-40.96 40.96z" />
<glyph unicode="&#xe698;" d="M409.6 256h-307.2c-14.131 0-25.6-11.469-25.6-25.6s11.469-25.6 25.6-25.6h307.2c14.157 0 25.6 11.469 25.6 25.6s-11.443 25.6-25.6 25.6zM102.4 307.2h307.2c14.157 0 25.6 11.469 25.6 25.6s-11.443 25.6-25.6 25.6h-307.2c-14.131 0-25.6-11.469-25.6-25.6s11.469-25.6 25.6-25.6zM409.6 153.6h-307.2c-14.131 0-25.6-11.443-25.6-25.6s11.469-25.6 25.6-25.6h307.2c14.157 0 25.6 11.443 25.6 25.6s-11.443 25.6-25.6 25.6z" />
<glyph unicode="&#xe699;" d="M184.909 208.128h143.36v46.080h-143.36v-46.080zM384 460.8h-256c-28.16 0-51.2-23.040-51.2-51.2v-358.4c0-28.16 23.040-51.2 51.2-51.2h256c28.16 0 51.2 23.040 51.2 51.2v358.4c0 28.16-23.040 51.2-51.2 51.2zM384 51.2h-256v358.4h256v-358.4zM327.68 354.073h-143.36v-44.8h143.36v44.8zM327.68 153.088h-143.36v-44.8h143.36v44.8z" />
<glyph unicode="&#xe69a;" d="M384 460.8h-256c-28.16 0-51.2-23.040-51.2-51.2v-358.4c0-28.16 23.040-51.2 51.2-51.2h256c28.16 0 51.2 23.040 51.2 51.2v358.4c0 28.16-23.040 51.2-51.2 51.2zM148.787 354.073h214.4v-44.8h-214.4v44.8zM363.187 108.288h-214.4v44.8h214.4v-44.8zM363.801 208.128h-214.4v46.080h214.4v-46.080z" />
<glyph unicode="&#xe69b;" d="M384 460.8h-256c-28.16 0-51.2-23.040-51.2-51.2v-358.4c0-28.16 23.040-51.2 51.2-51.2h256c28.16 0 51.2 23.040 51.2 51.2v358.4c0 28.16-23.040 51.2-51.2 51.2zM384 51.2h-256v358.4h256v-358.4z" />
<glyph unicode="&#xe69c;" d="M496.589 296.601l-190.592 51.047-33.357 124.467c-2.791 10.394-13.926 16.461-24.883 13.517l-232.32-62.233c-10.957-2.918-17.561-13.747-14.797-24.141l82.662-308.531c2.79-10.394 13.927-16.461 24.858-13.517l92.493 24.781-12.621-47.053c-2.791-10.419 3.815-21.223 14.771-24.166l207.616-55.629c10.957-2.919 22.093 3.123 24.883 13.517l76.058 283.802c2.791 10.393-3.815 21.222-14.771 24.141zM41.831 393.421l200.423 53.658 74.215-276.941-200.448-53.657-74.189 276.941zM401.382 13.696l-174.464 47.719 13.721 51.277 99.865 26.752c10.957 2.944 17.587 13.747 14.797 24.166l-38.605 144.051 152.217-41.753-67.533-252.211z" />
<glyph unicode="&#xe69d;" d="M0 358.4v-256c0-28.16 23.040-51.2 51.2-51.2h409.6c28.16 0 51.2 23.040 51.2 51.2v256c0 28.16-23.040 51.2-51.2 51.2h-409.6c-28.16 0-51.2-23.040-51.2-51.2zM460.8 358.4v-256h-409.6v256h409.6z" />
<glyph unicode="&#xe69e;" d="M438.4 302.771l-52.377 144.281c-3.865 10.649-15.232 16.281-25.319 12.595l-348.083-127.053c-10.112-3.661-15.207-15.283-11.341-25.933l55.219-152.115v81.536c0 36.787 29.389 66.688 65.561 66.688h91.981l109.696 77.005 63.488-77.005h51.175zM492.493 256.589h-370.432c-10.752 0-19.507-9.191-19.507-20.531v-241.178c0-11.315 8.73-20.531 19.507-20.531h370.432c10.777 0 19.507 9.19 19.507 20.531v241.203c0 11.315-8.729 20.505-19.507 20.505zM464.231 25.677h-307.072v44.007l47.232 109.952 70.886-87.987 66.483 68.147 85.478 30.848 36.992-82.483v-82.483z" />
<glyph unicode="&#xe69f;" d="M506.88 358.4v30.72c0 11.315-9.19 20.48-20.48 20.48h-460.8c-11.315 0-20.48-9.165-20.48-20.48v-30.72h51.2v-51.2h-51.2v-51.2h51.2v-51.2h-51.2v-51.2h51.2v-51.2h-51.2v-30.72c0-11.315 9.165-20.48 20.48-20.48h460.8c11.289 0 20.48 9.165 20.48 20.48v30.72h-51.2v51.2h51.2v51.2h-51.2v51.2h51.2v51.2h-51.2v51.2h51.2zM199.68 153.6v153.6l128-76.8-128-76.8z" />
<glyph unicode="&#xe6a0;" d="M384 460.8h-256c-28.16 0-51.2-23.040-51.2-51.2v-358.4c0-28.16 23.040-51.2 51.2-51.2h256c28.185 0 51.2 23.040 51.2 51.2v358.4c0 28.16-23.014 51.2-51.2 51.2zM327.577 217.063c-6.067-9.472-9.293-5.427-7.475 0 4.813 14.285 4.634 57.523-35.635 63.846v-133.453c0-24.883-14.336-40.499-44.8-50.279-29.594-9.472-62.72 0.384-70.477 21.658-7.731 21.248 9.677 47.104 38.886 57.754 16.307 5.913 32.845 5.863 45.594 0.921v188.262h30.797c0-32.333 86.553-81.126 43.111-148.711z" />
<glyph unicode="&#xe6a1;" d="M488.192 307.2h-464.384c-23.552 0-24.755-11.469-23.45-25.498l21.12-230.605c1.28-14.029 4.608-25.498 28.134-25.498h412.8c24.013 0 26.855 11.469 28.135 25.498l21.12 230.605c1.255 14.029 0.103 25.498-23.475 25.498zM471.142 363.52c-2.816 11.264-16.768 20.48-30.95 20.48h-174.438c-14.208 0-34.023 8.115-44.083 18.073l-15.257 15.053c-10.035 9.958-29.875 18.073-44.058 18.073h-83.353c-14.183 0-27.085-11.443-28.647-25.446l-7.475-66.714h433.433l-5.171 20.48z" />
<glyph unicode="&#xe6a2;" d="M434.381 358.4c0 25.6-25.472 25.6-25.472 25.6h-305.817c0 0-25.472 0-25.472-25.6v-25.6h356.761v25.6zM357.913 435.2h-203.853c0 0-25.472 0-25.472-25.6h254.822c0 25.6-25.498 25.6-25.498 25.6zM485.325 332.8c-15.079 15.155-15.079 15.155-15.079 15.155v-40.755h-428.519v40.755c0 0 0 0-15.078-15.155s-25.881-19.226-19.789-51.225c6.016-31.872 35.277-206.72 39.603-230.375 4.787-25.959 31.155-25.6 31.155-25.6h356.762c0 0 26.368-0.358 31.155 25.6 4.352 23.654 33.587 198.503 39.629 230.375 6.067 32-4.736 36.070-19.84 51.226zM357.913 194.56c0 0 0-25.6-25.498-25.6h-152.857c-25.472 0-25.472 25.6-25.472 25.6v51.2h35.686v-40.96h132.429v40.96h35.738v-51.2z" />
<glyph unicode="&#xe6a3;" d="M86.758 283.853l28.211-248.55c1.51-11.801 58.496-50.611 141.031-50.663 82.534 0.051 139.546 38.861 141.056 50.663l28.211 248.551c-43.111-24.115-107.546-35.533-169.267-35.533s-126.157 11.417-169.242 35.533zM337.075 437.453l-21.99 24.397c-8.474 12.057-17.69 14.31-35.635 14.31h-46.899c-17.92 0-27.136-2.253-35.635-14.31l-21.965-24.397c-65.792-11.494-113.51-41.984-113.51-64.461v-4.377c0-39.577 87.091-71.68 194.56-71.68s194.56 32.103 194.56 71.68v4.377c0 22.477-47.693 52.966-113.485 64.461zM308.966 380.442l-32.051 34.279h-41.831l-32.051-34.279h-43.52c0 0 47.667 56.832 54.042 64.537 4.864 5.888 9.856 8.141 16.307 8.141h52.301c6.451 0 11.418-2.253 16.307-8.141 6.349-7.706 54.041-64.537 54.041-64.537h-43.546z" />
<glyph unicode="&#xe6a4;" d="M256 435.149l-133.12-124.928h84.48v-131.072h97.28v131.072h84.505l-133.145 124.928zM495.104 139.673l-81.51 54.835h-50.253l87.040-66.765h-90.752c-2.611 0-4.941-1.331-6.144-3.405l-20.889-57.216h-153.19l-20.915 57.216c-1.152 2.074-3.533 3.405-6.144 3.405h-90.727l87.066 66.765h-50.279l-81.485-54.835c-12.134-7.245-19.379-23.962-16.128-37.094l14.361-78.695c3.251-13.159 17.69-23.936 32.026-23.936h417.613c14.387 0 28.8 10.777 32.051 23.936l14.361 78.695c3.302 13.159-3.968 29.849-16.103 37.094z" />
<glyph unicode="&#xe6a5;" d="M495.104 139.673l-81.51 54.835h-50.253l87.040-66.765h-90.752c-2.611 0-4.941-1.331-6.144-3.405l-20.889-57.216h-153.19l-20.915 57.216c-1.152 2.074-3.533 3.405-6.144 3.405h-90.727l87.066 66.765h-50.279l-81.485-54.835c-12.134-7.245-19.379-23.962-16.128-37.094l14.361-78.695c3.251-13.159 17.69-23.936 32.026-23.936h417.613c14.387 0 28.8 10.777 32.051 23.936l14.361 78.695c3.302 13.159-3.968 29.849-16.103 37.094zM389.146 304.077h-84.505v131.072h-97.28v-131.072h-84.48l133.12-124.928 133.146 124.928z" />
<glyph unicode="&#xe6a6;" d="M388.403 435.2h-286.003c-28.16 0-51.2-23.040-51.2-51.2v-307.2c0-28.16 23.040-51.2 51.2-51.2h307.2c28.16 0 51.2 23.040 51.2 51.2v278.349l-72.397 80.051zM358.4 281.6c0-14.080-11.52-25.6-25.6-25.6h-153.6c-14.080 0-25.6 11.52-25.6 25.6v128h204.8v-128zM332.8 384h-51.2v-102.4h51.2v102.4z" />
<glyph unicode="&#xe6a7;" d="M478.31 194.611l-80.589 191.795c-6.349 12.8-23.245 23.271-37.555 23.271h-52.454l9.728-104.064h69.12l-130.56-108.288-130.56 108.288h69.12l9.728 104.038h-52.429c-14.285 0-31.181-10.471-37.555-23.271l-80.589-191.795c-6.4-12.8-9.677-34.816-7.347-48.947l17.408-94.361c2.355-14.106 15.949-25.651 30.233-25.651h364.007c14.31 0 27.904 11.546 30.259 25.651l17.408 94.361c2.304 14.131-0.973 36.173-7.373 48.973zM443.392 127.385l-6.605-38.451c-1.997-14.771-15.309-26.855-29.543-26.855h-302.49c-14.259 0-27.571 12.083-29.543 26.855l-6.63 38.451c-1.971 14.771 8.090 26.855 22.349 26.855h330.137c14.285-0.026 24.32-12.083 22.323-26.855z" />
<glyph unicode="&#xe6a8;" d="M389.453 290.841c-7.040 0-13.978-0.615-20.711-1.741-16.793 54.912-68.813 94.925-130.458 94.925-75.213 0-136.167-59.597-136.167-133.12 0-6.553 0.512-13.005 1.459-19.328-3.609 0.41-7.245 0.691-10.983 0.691-51.123 0-92.595-40.551-92.595-90.522 0-49.997 41.472-90.522 92.595-90.522h296.858c67.712 0 122.547 53.657 122.547 119.808 0 66.176-54.861 119.808-122.547 119.808z" />
<glyph unicode="&#xe6a9;" d="M389.453 290.841c-7.040 0-13.978-0.615-20.711-1.741-16.793 54.912-68.813 94.925-130.458 94.925-75.213 0-136.167-59.597-136.167-133.12 0-6.553 0.512-13.005 1.459-19.328-3.609 0.41-7.245 0.691-10.983 0.691-51.123 0-92.595-40.551-92.595-90.522 0-49.997 41.472-90.522 92.595-90.522h127.565v97.28h-53.76l89.6 117.76 89.6-117.76h-53.76v-97.28h97.587c67.712 0 122.547 53.658 122.547 119.808 0.026 66.176-54.835 119.808-122.522 119.808z" />
<glyph unicode="&#xe6aa;" d="M322.56 460.8h-138.24c-14.157 0-20.48-11.469-20.48-25.6v-435.2l92.16 92.16 92.16-92.16v435.2c0 14.131-11.469 25.6-25.6 25.6z" />
<glyph unicode="&#xe6ab;" d="M371.2 486.4h-107.52c-14.131 0-20.48-11.469-20.48-25.6h51.2c14.157 0 25.6-11.469 25.6-25.6v-317.44l76.8-92.16v435.2c0 14.131-11.443 25.6-25.6 25.6zM243.2 409.6h-107.52c-14.131 0-20.48-11.469-20.48-25.6v-409.6l76.8 92.16 76.8-92.16v409.6c0 14.131-11.443 25.6-25.6 25.6z" />
</font>
</defs>
</svg>
